Shakira Feat. Alejandro Sanz - La Tortura (VH1HD-1080i-DD2.0-CELOBRAZiL)-HDMania

Discussion in 'VH1 HD' started by DETOX, Mar 17, 2015.

  1. DETOX

    DETOX Well-Known Member V . I . P. Uploader

    Joined:
    Feb 20, 2014
    Messages:
    2,771
    Likes Received:
    14,299

    Shakira (feat. Alejandro Sanz) - La Tortura (VH1HD-1080i-DD2.0-CELOBRAZiL)
    [​IMG]
    General
    ID : 1 (0x1)
    Complete name : Shakira (feat. Alejandro Sanz) - La Tortura (VH1HD-1080i-DD2.0-CELOBRAZiL).ts
    Format : MPEG-TS
    File size : 246 MiB
    Duration : 3mn 44s
    Overall bit rate mode : Variable
    Overall bit rate : 9 220 Kbps

    Video
    ID : 5408 (0x1520)
    Menu ID : 1 (0x1)
    Format : AVC
    Format/Info : Advanced Video Codec
    Format profile : [email protected]
    Format settings, CABAC : Yes
    Format settings, ReFrames : 2 frames
    Codec ID : 27
    Duration : 3mn 44s
    Bit rate : 8 377 Kbps
    Width : 1 920 pixels
    Height : 1 080 pixels
    Display aspect ratio : 16:9
    Frame rate : 29.970 fps
    Color space : YUV
    Chroma subsampling : 4:2:0
    Bit depth : 8 bits
    Scan type : MBAFF
    Scan order : Top Field First
    Bits/(Pixel*Frame) : 0.135
    Stream size : 224 MiB (91%)
    Color primaries : BT.709
    Transfer characteristics : BT.709
    Matrix coefficients : BT.709
    Color range : Limited

    Audio
    ID : 5410 (0x1522)
    Menu ID : 1 (0x1)
    Format : AC-3
    Format/Info : Audio Coding 3
    Mode extension : CM (complete main)
    Format settings, Endianness : Big
    Codec ID : 129
    Duration : 3mn 44s
    Bit rate mode : Constant
    Bit rate : 384 Kbps
    Channel(s) : 2 channels
    Channel positions : Front: L R
    Sampling rate : 48.0 KHz
    Bit depth : 16 bits
    Compression mode : Lossy
    Stream size : 10.3 MiB (4%)
    Language : English

    Credits to CELOBRAZiL

    SERVER: MEGA / PASSWORD: DETOX
    Hidden Content:
    You must reply before you can see the hidden data contained here.
     
  2. Loading...


  3. 777josem

    777josem Well-Known Member Uploader

    Joined:
    Sep 1, 2014
    Messages:
    2,431
    Likes Received:
    1,308
    :happy:Thank you so much DETOX
     
  4. rashka

    rashka Member

    Joined:
    Apr 8, 2014
    Messages:
    200
    Likes Received:
    7
    Thank you
     
  5. GuruPitka

    GuruPitka Member

    Joined:
    Apr 3, 2014
    Messages:
    145
    Likes Received:
    1
    Great!
    thank you alot!
     
  6. theclimb

    theclimb Active Member

    Joined:
    Dec 16, 2014
    Messages:
    550
    Likes Received:
    78
    coool
     
  7. Vinny

    Vinny Active Member

    Joined:
    Dec 26, 2013
    Messages:
    1,771
    Likes Received:
    7
    Thank U!
     
  8. rhea

    rhea Well-Known Member

    Joined:
    Jan 6, 2014
    Messages:
    5,304
    Likes Received:
    253
    thank you so much
     
  9. brian182

    brian182 Well-Known Member

    Joined:
    Oct 14, 2013
    Messages:
    1,625
    Likes Received:
    40
    thanks!! lol
     
  10. snake

    snake Member

    Joined:
    Mar 30, 2015
    Messages:
    60
    Likes Received:
    3
     
  11. Vjeans

    Vjeans Well-Known Member

    Joined:
    May 10, 2014
    Messages:
    885
    Likes Received:
    2,593
    Thank you!
     
  12. Jefferson Archuleta

    Jefferson Archuleta Member

    Joined:
    Mar 23, 2015
    Messages:
    71
    Likes Received:
    6
    THANKS
     
  13. Manoel Sampaio

    Manoel Sampaio Member

    Joined:
    Jul 26, 2014
    Messages:
    79
    Likes Received:
    25
    Thanks!
     
  14. mizdot

    mizdot Active Member

    Joined:
    Nov 13, 2014
    Messages:
    1,195
    Likes Received:
    21
    tnx man
     
  15. cefa011

    cefa011 New Member

    Joined:
    Feb 15, 2015
    Messages:
    23
    Likes Received:
    0
    excelent post my friend
     
  16. diego_123

    diego_123 Member

    Joined:
    Dec 15, 2013
    Messages:
    494
    Likes Received:
    9
    Thank you so much.
     
  17. Alexander

    Alexander Member

    Joined:
    Apr 7, 2014
    Messages:
    76
    Likes Received:
    6
     
  18. Dave

    Dave Well-Known Member

    Joined:
    Jun 2, 2015
    Messages:
    542
    Likes Received:
    271
     
  19. Yakaa

    Yakaa Member

    Joined:
    Jun 29, 2015
    Messages:
    21
    Likes Received:
    1
    thank you
     
  20. amirdvb

    amirdvb Member

    Joined:
    Feb 1, 2015
    Messages:
    418
    Likes Received:
    9
    thank you
     
  21. khan

    khan Active Member

    Joined:
    May 11, 2014
    Messages:
    983
    Likes Received:
    48