HDTV Shakira - Can't Remember to Forget You (cut) (Live on Today 03-26-2014) 1080i

Discussion in 'HD Live Performances' started by hanshermann, Dec 16, 2017.

  1. hanshermann

    hanshermann Well-Known Member Uploader

    Joined:
    Aug 24, 2016
    Messages:
    6,951
    Likes Received:
    11,166
    [​IMG]

    Shakira - Can't Remember to Forget You (cut) (Live on Today 03-26-2014) 1080i

    Code:
    General
    Complete name               : Shakira - Can't Remember to Forget You (cut) (Live on Today 03-26-2014) 1080i.mpg
    Format                      : MPEG-PS
    File size                   : 347 MiB
    Duration                    : 3 min 45 s
    Overall bit rate mode       : Variable
    Overall bit rate            : 12.9 Mb/s
    
    Video
    ID                          : 224 (0xE0)
    Format                      : MPEG Video
    Format version              : Version 2
    Format profile              : Main@High
    Format settings, BVOP       : Yes
    Format settings, Matrix     : Custom
    Format settings, GOP        : M=3, N=45
    Format settings, picture st : Frame
    Duration                    : 3 min 45 s
    Bit rate mode               : Variable
    Bit rate                    : 12.3 Mb/s
    Maximum bit rate            : 20.0 Mb/s
    Width                       : 1 920 pixels
    Height                      : 1 080 pixels
    Display aspect ratio        : 16:9
    Active Format Description   : Full frame 16:9 image
    Frame rate                  : 29.970 (30000/1001) FPS
    Standard                    : Component
    Color space                 : YUV
    Chroma subsampling          : 4:2:0
    Bit depth                   : 8 bits
    Scan type                   : Interlaced
    Scan order                  : Top Field First
    Compression mode            : Lossy
    Bits/(Pixel*Frame)          : 0.198
    Time code of first frame    : 22:13:44;27
    Time code source            : Group of pictures header
    GOP, Open/Closed            : Open
    Stream size                 : 330 MiB (95%)
    Color primaries             : BT.709
    Transfer characteristics    : BT.709
    Matrix coefficients         : BT.709
    
    Audio
    ID                          : 189 (0xBD)-128 (0x80)
    Format                      : AC-3
    Format/Info                 : Audio Coding 3
    Format settings, Endianness : Big
    Muxing mode                 : DVD-Video
    Duration                    : 3 min 45 s
    Bit rate mode               : Constant
    Bit rate                    : 384 kb/s
    Channel(s)                  : 6 channels
    Channel positions           : Front: L C R, Side: L R, LFE
    Sampling rate               : 48.0 kHz
    Frame rate                  : 31.250 FPS (1536 spf)
    Bit depth                   : 16 bits
    Compression mode            : Lossy
    Delay relative to video     : -618 ms
    Stream size                 : 10.3 MiB (3%)
    Service kind                : Complete Main
    Hidden Content:
    You must either reply or click 'Like' to see the hidden information contained here.
     
    Last edited: Apr 13, 2018
    EnnEss, theclimb, Gustavofl91 and 8 others like this.
  2. Loading...


  3. nino.navy

    nino.navy Well-Known Member

    Joined:
    May 30, 2014
    Messages:
    3,084
    Likes Received:
    184
    thank you :)
     
  4. Rorschach95

    Rorschach95 Member

    Joined:
    Jun 12, 2016
    Messages:
    234
    Likes Received:
    1
  5. cranman

    cranman Member

    Joined:
    Feb 22, 2017
    Messages:
    228
    Likes Received:
    4
    thanks
     
  6. Romana

    Romana Active Member

    Joined:
    Oct 26, 2013
    Messages:
    571
    Likes Received:
    92
    thank u!
     
  7. rhea

    rhea Well-Known Member

    Joined:
    Jan 6, 2014
    Messages:
    8,083
    Likes Received:
    1,113
    thanks
     
  8. apl3

    apl3 Well-Known Member

    Joined:
    Jun 11, 2017
    Messages:
    1,117
    Likes Received:
    29
    thanks
     
  9. frisby

    frisby Well-Known Member

    Joined:
    Nov 21, 2015
    Messages:
    1,549
    Likes Received:
    134
    thanks
     
  10. exterminador

    exterminador Well-Known Member

    Joined:
    Jul 3, 2016
    Messages:
    2,403
    Likes Received:
    208
  11. shing000

    shing000 Well-Known Member

    Joined:
    Mar 13, 2016
    Messages:
    1,415
    Likes Received:
    96
  12. GeeCee

    GeeCee Member

    Joined:
    Apr 25, 2016
    Messages:
    227
    Likes Received:
    10
    Thanks
     
  13. miguelmr87

    miguelmr87 Well-Known Member

    Joined:
    Dec 20, 2013
    Messages:
    1,300
    Likes Received:
    291
    thank you
     
  14. D3mon86

    D3mon86 Member

    Joined:
    Dec 19, 2016
    Messages:
    851
    Likes Received:
    15
    thanks
     
  15. Fabien Fournier

    Fabien Fournier Active Member

    Joined:
    Nov 14, 2013
    Messages:
    650
    Likes Received:
    72
    Thanks
     
  16. lim

    lim Well-Known Member

    Joined:
    Nov 8, 2013
    Messages:
    2,033
    Likes Received:
    76
    thanks
     
  17. multimediafm

    multimediafm Well-Known Member Donor

    Joined:
    Mar 27, 2014
    Messages:
    13,139
    Likes Received:
    1,045
  18. MACHADO

    MACHADO Active Member

    Joined:
    Jun 12, 2017
    Messages:
    550
    Likes Received:
    36
    g
    gracias
     
  19. John

    John Member

    Joined:
    Oct 30, 2013
    Messages:
    501
    Likes Received:
    5
    Thanks
     
  20. glamjam

    glamjam Member

    Joined:
    Dec 17, 2013
    Messages:
    127
    Likes Received:
    10
    thank u much
     
  21. danino2200

    danino2200 Member

    Joined:
    Mar 1, 2016
    Messages:
    138
    Likes Received:
    11
    graciass
     
    Wilson Sores likes this.