HDTV Shakira - Can't Remember to Forget You (cut) (Live on Today 03-26-2014) 1080i

Discussion in 'HD Live Performances' started by hanshermann, Dec 16, 2017.

  1. hanshermann

    hanshermann Well-Known Member Uploader

    Joined:
    Aug 24, 2016
    Messages:
    5,222
    Likes Received:
    4,863
    [​IMG]

    Shakira - Can't Remember to Forget You (cut) (Live on Today 03-26-2014) 1080i

    Code:
    General
    Complete name               : Shakira - Can't Remember to Forget You (cut) (Live on Today 03-26-2014) 1080i.mpg
    Format                      : MPEG-PS
    File size                   : 347 MiB
    Duration                    : 3 min 45 s
    Overall bit rate mode       : Variable
    Overall bit rate            : 12.9 Mb/s
    
    Video
    ID                          : 224 (0xE0)
    Format                      : MPEG Video
    Format version              : Version 2
    Format profile              : [email protected]
    Format settings, BVOP       : Yes
    Format settings, Matrix     : Custom
    Format settings, GOP        : M=3, N=45
    Format settings, picture st : Frame
    Duration                    : 3 min 45 s
    Bit rate mode               : Variable
    Bit rate                    : 12.3 Mb/s
    Maximum bit rate            : 20.0 Mb/s
    Width                       : 1 920 pixels
    Height                      : 1 080 pixels
    Display aspect ratio        : 16:9
    Active Format Description   : Full frame 16:9 image
    Frame rate                  : 29.970 (30000/1001) FPS
    Standard                    : Component
    Color space                 : YUV
    Chroma subsampling          : 4:2:0
    Bit depth                   : 8 bits
    Scan type                   : Interlaced
    Scan order                  : Top Field First
    Compression mode            : Lossy
    Bits/(Pixel*Frame)          : 0.198
    Time code of first frame    : 22:13:44;27
    Time code source            : Group of pictures header
    GOP, Open/Closed            : Open
    Stream size                 : 330 MiB (95%)
    Color primaries             : BT.709
    Transfer characteristics    : BT.709
    Matrix coefficients         : BT.709
    
    Audio
    ID                          : 189 (0xBD)-128 (0x80)
    Format                      : AC-3
    Format/Info                 : Audio Coding 3
    Format settings, Endianness : Big
    Muxing mode                 : DVD-Video
    Duration                    : 3 min 45 s
    Bit rate mode               : Constant
    Bit rate                    : 384 kb/s
    Channel(s)                  : 6 channels
    Channel positions           : Front: L C R, Side: L R, LFE
    Sampling rate               : 48.0 kHz
    Frame rate                  : 31.250 FPS (1536 spf)
    Bit depth                   : 16 bits
    Compression mode            : Lossy
    Delay relative to video     : -618 ms
    Stream size                 : 10.3 MiB (3%)
    Service kind                : Complete Main
    Hidden Content:
    You must either reply or click 'Like' to see the hidden information contained here.
     
    lim, miguelmr87, rhea and 2 others like this.
  2. Loading...


  3. nino.navy

    nino.navy Well-Known Member

    Joined:
    May 30, 2014
    Messages:
    2,433
    Likes Received:
    97
    thank you :)
     
  4. Rorschach95

    Rorschach95 Member

    Joined:
    Jun 12, 2016
    Messages:
    206
    Likes Received:
    0
  5. cranman

    cranman Member

    Joined:
    Feb 22, 2017
    Messages:
    191
    Likes Received:
    3
    thanks
     
  6. Romana

    Romana Active Member

    Joined:
    Oct 26, 2013
    Messages:
    470
    Likes Received:
    80
    thank u!
     
  7. rhea

    rhea Well-Known Member

    Joined:
    Jan 6, 2014
    Messages:
    7,111
    Likes Received:
    788
    thanks
     
  8. apl3

    apl3 Active Member

    Joined:
    Jun 11, 2017
    Messages:
    692
    Likes Received:
    25
    thanks
     
  9. frisby

    frisby Well-Known Member

    Joined:
    Nov 21, 2015
    Messages:
    1,192
    Likes Received:
    123
    thanks
     
  10. exterminador

    exterminador Well-Known Member

    Joined:
    Jul 3, 2016
    Messages:
    1,858
    Likes Received:
    171
  11. shing000

    shing000 Active Member

    Joined:
    Mar 13, 2016
    Messages:
    991
    Likes Received:
    45
  12. GeeCee

    GeeCee Member

    Joined:
    Apr 25, 2016
    Messages:
    192
    Likes Received:
    10
    Thanks
     
  13. miguelmr87

    miguelmr87 Active Member

    Joined:
    Dec 20, 2013
    Messages:
    874
    Likes Received:
    210
    thank you
     
  14. D3mon86

    D3mon86 Member

    Joined:
    Dec 19, 2016
    Messages:
    595
    Likes Received:
    6
    thanks
     
  15. Fabien Fournier

    Fabien Fournier Active Member

    Joined:
    Nov 14, 2013
    Messages:
    592
    Likes Received:
    66
    Thanks
     
  16. lim

    lim Well-Known Member

    Joined:
    Nov 8, 2013
    Messages:
    1,813
    Likes Received:
    36
    thanks
     
  17. multimediafm

    multimediafm Well-Known Member Donor

    Joined:
    Mar 27, 2014
    Messages:
    11,137
    Likes Received:
    671