Shakira - Addicted To You (BridgeHD-1080i-MP2-Olgold)-HDMania

Discussion in 'Bridge HD' started by Olgold, Oct 10, 2016.

  1. Olgold

    Olgold Well-Known Member Capper

    Joined:
    Aug 19, 2015
    Messages:
    386
    Likes Received:
    1,303
    Shakira - Addicted To You
    [​IMG]
    General
    Format : MPEG-TS
    File size : 124 MiB
    Duration : 2 min 24 s
    Overall bit rate mode : Variable
    Overall bit rate : 7 197 kb/s

    Video
    Format : AVC
    Format/Info : Advanced Video Codec
    Format profile : [email protected]
    Format settings, CABAC : Yes
    Format settings, ReFrames : 4 frames
    Duration : 2 min 24 s
    Bit rate : 6 647 kb/s
    Width : 1 920 pixels
    Height : 1 080 pixels
    Display aspect ratio : 16:9
    Frame rate : 25.000 FPS
    Standard : Component
    Color space : YUV
    Chroma subsampling : 4:2:0
    Bit depth : 8 bits
    Scan type : Interlaced
    Scan type, store method : Separated fields
    Scan order : Top Field First
    Bits/(Pixel*Frame) : 0.128
    Stream size : 115 MiB (92%)
    Color range : Limited

    Audio
    Format : MPEG Audio
    Format version : Version 1
    Format profile : Layer 2
    Duration : 2 min 24 s
    Bit rate mode : Constant
    Bit rate : 192 kb/s
    Channel(s) : 2 channels
    Sampling rate : 48.0 kHz
    Compression mode : Lossy
    Delay relative to video : -5 ms
    Stream size : 3.32 MiB (3%)
    Password: Olgold

    Hidden Content:
    You must reply before you can see the hidden data contained here.
     
    meisam.sch, CELOBRAZiL and rhea like this.
  2. Loading...


  3. rhea

    rhea Well-Known Member

    Joined:
    Jan 6, 2014
    Messages:
    5,193
    Likes Received:
    250
    thank you so much :)
     
  4. CELOBRAZiL

    CELOBRAZiL Well-Known Member Capper V . I . P. Donor

    Joined:
    Oct 2, 2013
    Messages:
    1,327
    Likes Received:
    3,472
    Thank you so much! :)
     
  5. Hyrus

    Hyrus Arianator / Selenator / Victorian / LBS* Donor

    Joined:
    Feb 9, 2015
    Messages:
    1,059
    Likes Received:
    515
    Thanks a lot for Shakira!! Awesome video :D
     
  6. hanshermann

    hanshermann Active Member

    Joined:
    Aug 24, 2016
    Messages:
    1,216
    Likes Received:
    1
    wahts taht