Seo In Young - Love Me (Mnet Japan HD)

Discussion in 'MNET' started by yukides, Apr 22, 2014.

  1. yukides

    yukides Active Member

    Joined:
    Nov 15, 2013
    Messages:
    168
    Likes Received:
    78
    Seo In Young - Love Me (Mnet Japan HD)

    [​IMG]
    Code:
    Format                                   : MPEG-TS
    File size                                : 99.8 MiB
    Duration                                 : 3mn 31s
    Overall bit rate mode                    : Variable
    Overall bit rate                         : 3 958 Kbps
    
    Video
    ID                                       : 4100 (0x1004)
    Menu ID                                  : 129 (0x81)
    Format                                   : AVC
    Format/Info                              : Advanced Video Codec
    Format profile                           : [email protected]
    Format settings, CABAC                   : Yes
    Format settings, ReFrames                : 4 frames
    Format settings, GOP                     : M=4, N=28
    Codec ID                                 : 27
    Duration                                 : 3mn 31s
    Bit rate mode                            : Variable
    Bit rate                                 : 3 617 Kbps
    Maximum bit rate                         : 20.0 Mbps
    Width                                    : 1 440 pixels
    Height                                   : 1 080 pixels
    Display aspect ratio                     : 16:9
    Frame rate                               : 29.970 fps
    Standard                                 : Component
    Color space                              : YUV
    Chroma subsampling                       : 4:2:0
    Bit depth                                : 8 bits
    Scan type                                : Interlaced
    Scan order                               : Top Field First
    Bits/(Pixel*Frame)                       : 0.078
    Stream size                              : 91.2 MiB (91%)
    Color primaries                          : BT.709
    Transfer characteristics                 : BT.709
    Matrix coefficients                      : BT.709
    
    Audio
    ID                                       : 4164 (0x1044)
    Menu ID                                  : 129 (0x81)
    Format                                   : AAC
    Format/Info                              : Advanced Audio Codec
    Format version                           : Version 2
    Format profile                           : LC
    Muxing mode                              : ADTS
    Codec ID                                 : 15
    Duration                                 : 3mn 31s
    Bit rate mode                            : Variable
    Bit rate                                 : 144 Kbps
    Channel(s)                               : 2 channels
    Channel positions                        : Front: L R
    Sampling rate                            : 48.0 KHz
    Compression mode                         : Lossy
    Delay relative to video                  : -421ms
    Stream size                              : 3.63 MiB (4%)
    
    Link
    Hidden Content:
    You must reply before you can see the hidden data contained here.
     
  2. Loading...


  3. Cesar

    Cesar Member

    Joined:
    Nov 11, 2013
    Messages:
    402
    Likes Received:
    12
    Thanks
     
  4. rhea

    rhea Well-Known Member

    Joined:
    Jan 6, 2014
    Messages:
    5,676
    Likes Received:
    366
    thanks
     
  5. roberthls

    roberthls Member

    Joined:
    May 26, 2016
    Messages:
    97
    Likes Received:
    0
    thanks'
     
  6. faz

    faz Member

    Joined:
    Jan 9, 2014
    Messages:
    265
    Likes Received:
    1
    thanks