SDTV Sentidos Opuestos - Dónde Están-En Vivo Otro Rollo (Dolby AC3-480p)

Discussion in 'SD Live Performances' started by Danny82, Feb 11, 2019 at 11:19 PM.

  1. Danny82

    Danny82 Well-Known Member

    Joined:
    May 28, 2016
    Messages:
    2,596
    Likes Received:
    836
    [​IMG]
    Code:
    General
    Complete name                  :Sentidos Opuestos - Dónde Están
    Format                         : MPEG-PS
    File size                      : 230 MiB
    Duration                       : 5 min 19 s
    Overall bit rate mode          : Variable
    Overall bit rate               : 6 029 kb/s
    
    Video
    ID                             : 224 (0xE0)
    Format                         : MPEG Video
    Format version                 : Version 2
    Format profile                 : Main@Main
    Format settings                : CustomMatrix / BVOP
    Format settings, BVOP          : Yes
    Format settings, Matrix        : Custom
    Format settings, GOP           : M=3, N=12
    Format settings, picture struc : Frame
    Duration                       : 5 min 19 s
    Bit rate mode                  : Variable
    Bit rate                       : 5 653 kb/s
    Maximum bit rate               : 9 800 kb/s
    Width                          : 720 pixels
    Height                         : 480 pixels
    Display aspect ratio           : 4:3
    Frame rate                     : 29.970 (30000/1001) FPS
    Standard                       : NTSC
    Color space                    : YUV
    Chroma subsampling             : 4:2:0
    Bit depth                      : 8 bits
    Scan type                      : Interlaced
    Scan order                     : Top Field First
    Compression mode               : Lossy
    Bits/(Pixel*Frame)             : 0.546
    Time code of first frame       : 00:13:13:00
    Time code source               : Group of pictures header
    GOP, Open/Closed               : Open
    Stream size                    : 215 MiB (94%)
    
    Audio
    ID                             : 189 (0xBD)-128 (0x80)
    Format                         : AC-3
    Format/Info                    : Audio Coding 3
    Muxing mode                    : DVD-Video
    Duration                       : 5 min 19 s
    Bit rate mode                  : Constant
    Bit rate                       : 256 kb/s
    Channel(s)                     : 2 channels
    Channel positions              : Front: L R
    Sampling rate                  : 48.0 kHz
    Frame rate                     : 31.250 FPS (1536 SPF)
    Bit depth                      : 16 bits
    Compression mode               : Lossy
    Delay relative to video        : -65 ms
    Stream size                    : 9.76 MiB (4%)
    Service kind                   : Complete Main
    Hidden Content:
    You must either reply or click 'Like' to see the hidden information contained here.
    GoogleDrive
    :love::victory::love:
     
    Rubn4 likes this.
  2. mastodontosaurio

    mastodontosaurio Well-Known Member

    Joined:
    Sep 29, 2015
    Messages:
    1,082
    Likes Received:
    53
    gran performance una joya, muchas gracias Danny
     
  3. kyros

    kyros Active Member

    Joined:
    Oct 21, 2015
    Messages:
    692
    Likes Received:
    29