Selena Gomez & The Scene - Love You Like A Love Song (MUCHHD-1080i-DD5.1-AmazonBoy)

Discussion in 'MUCH HD' started by DETOX, Jul 6, 2015.

  1. DETOX

    DETOX Well-Known Member V . I . P. Uploader

    Joined:
    Feb 20, 2014
    Messages:
    2,887
    Likes Received:
    18,534
    [​IMG]


    Format : MPEG-TS
    File size : 315 MiB
    Duration : 3mn 33s
    Overall bit rate mode : Variable
    Overall bit rate : 12.4 Mbps
    Maximum Overall bit rate : 35.5 Mbps

    Video
    ID : 4113 (0x1011)
    Menu ID : 1 (0x1)
    Format : MPEG Video
    Format version : Version 2
    Format profile : Main@High
    Format settings, BVOP : Yes
    Format settings, Matrix : Custom
    Format settings, GOP : Variable
    Format settings, picture structure : Frame
    Codec ID : 2
    Duration : 3mn 33s
    Bit rate mode : Variable
    Bit rate : 11.4 Mbps
    Maximum bit rate : 20.0 Mbps
    Width : 1 920 pixels
    Height : 1 080 pixels
    Display aspect ratio : 16:9
    Frame rate : 29.970 fps
    Color space : YUV
    Chroma subsampling : 4:2:0
    Bit depth : 8 bits
    Scan type : Interlaced
    Scan order : Top Field First
    Compression mode : Lossy
    Bits/(Pixel*Frame) : 0.184
    Time code of first frame : 00:00:00;00
    Time code source : Group of pictures header
    Stream size : 290 MiB (92%)

    Audio
    ID : 4352 (0x1100)
    Menu ID : 1 (0x1)
    Format : AC-3
    Format/Info : Audio Coding 3
    Mode extension : CM (complete main)
    Format settings, Endianness : Big
    Codec ID : 129
    Duration : 3mn 33s
    Bit rate mode : Constant
    Bit rate : 384 Kbps
    Channel(s) : 6 channels
    Channel positions : Front: L C R, Side: L R, LFE
    Sampling rate : 48.0 KHz
    Bit depth : 16 bits
    Compression mode : Lossy
    Stream size : 9.76 MiB (3%)
    Language : English


    Hidden Content:
    You must reply before you can see the hidden data contained here.
     
    Last edited by a moderator: Jan 18, 2016
    Outlaw likes this.
  2. Loading...


  3. tomkins

    tomkins Active Member

    Joined:
    Mar 28, 2014
    Messages:
    247
    Likes Received:
    122
    thank you so much
    for the video!
    :D
     
  4. Ray031

    Ray031 Member

    Joined:
    Jul 11, 2015
    Messages:
    328
    Likes Received:
    9
    Thank You
     
  5. baby_kitty

    baby_kitty Member

    Joined:
    Oct 10, 2015
    Messages:
    69
    Likes Received:
    1
    thank you
     
  6. janito33

    janito33 Member

    Joined:
    Dec 10, 2014
    Messages:
    136
    Likes Received:
    1
    GRACIAS POR EL VIDEO
     
  7. MCTR

    MCTR Active Member

    Joined:
    Feb 23, 2014
    Messages:
    293
    Likes Received:
    35
    Thank You
     
  8. z0ntik

    z0ntik Member

    Joined:
    Feb 29, 2016
    Messages:
    137
    Likes Received:
    5
    Thank You
     
  9. seregil

    seregil Member

    Joined:
    Sep 5, 2014
    Messages:
    103
    Likes Received:
    1
    thanks
     
  10. Blunder

    Blunder Member

    Joined:
    Mar 27, 2016
    Messages:
    351
    Likes Received:
    3
    thanks
     
  11. Outlaw

    Outlaw Member

    Joined:
    Sep 25, 2016
    Messages:
    124
    Likes Received:
    2
    I <3 This Music Video
     
  12. zhxliveing

    zhxliveing Member

    Joined:
    Sep 7, 2016
    Messages:
    383
    Likes Received:
    19
    thanks
     
  13. revilo18

    revilo18 Well-Known Member

    Joined:
    May 26, 2016
    Messages:
    1,513
    Likes Received:
    67
    THANKKKK
     
  14. ifuseekme

    ifuseekme Member

    Joined:
    Jun 26, 2016
    Messages:
    62
    Likes Received:
    2
  15. hanshermann

    hanshermann Well-Known Member

    Joined:
    Aug 24, 2016
    Messages:
    3,810
    Likes Received:
    29
    wahts taht
     
  16. tranmanduy

    tranmanduy Member

    Joined:
    Jan 5, 2017
    Messages:
    153
    Likes Received:
    3
    thank you
     
  17. JRGLS

    JRGLS New Member

    Joined:
    May 29, 2017
    Messages:
    3
    Likes Received:
    0
    Hey , i new member i love this video