Selena Gomez & The Scene - Love You Like A Love Song (DISNEYHD-720p-DD5.1-TrollHD)

Discussion in 'DISNEY HD' started by KallumLavigne, Jan 13, 2014.

  1. KallumLavigne

    KallumLavigne Well-Known Member

    Joined:
    Nov 18, 2013
    Messages:
    677
    Likes Received:
    1,240
    [​IMG]
    Code:
    Complete name                  : Selena Gomez & the Scene Love You Like a Love Song 720p HDTV DD5.1 MPEG2-TrollHD.ts
    Format                        : MPEG-TS
    File size                      : 410 MiB
    Duration                      : 3mn 43s
    Overall bit rate              : 15.4 Mbps
    
    Video
    ID                            : 589 (0x24D)
    Menu ID                        : 1 (0x1)
    Format                        : MPEG Video
    Commercial name                : HDV 720p
    Codec ID                      : 2
    Duration                      : 3mn 42s
    Bit rate mode                  : Variable
    Bit rate                      : 14.3 Mbps
    Maximum bit rate              : 18.0 Mbps
    Width                          : 1 280 pixels
    Height                        : 720 pixels
    Display aspect ratio          : 16:9
    Frame rate                    : 59.940 fps
    Color space                    : YUV
    Chroma subsampling            : 4:2:0
    Bit depth                      : 8 bits
    Scan type                      : Progressive
    Compression mode              : Lossy
    Bits/(Pixel*Frame)            : 0.258
    Time code of first frame      : 00:00:00;00
    Time code source              : Group of pictures header
    Stream size                    : 379 MiB (92%)
    
    Audio
    ID                            : 588 (0x24C)
    Menu ID                        : 1 (0x1)
    Format                        : AC-3
    Format/Info                    : Audio Coding 3
    Mode extension                : CM (complete main)
    Format settings, Endianness    : Big
    Codec ID                      : 129
    Duration                      : 3mn 42s
    Bit rate mode                  : Constant
    Bit rate                      : 384 Kbps
    Channel count                  : 6 channels
    Channel positions              : Front: L C R, Side: L R, LFE
    Sampling rate                  : 48.0 KHz
    Bit depth                      : 16 bits
    Compression mode              : Lossy
    Delay relative to video        : 16ms
    Stream size                    : 10.2 MiB (2%)
    Language                      : English
    Hidden Content:
    You must reply before you can see the hidden data contained here.
     
  2. Loading...


  3. End

    End Member

    Joined:
    Nov 17, 2013
    Messages:
    161
    Likes Received:
    1
    Thanks For Selena:)
     
  4. alex

    alex Well-Known Member

    Joined:
    Nov 21, 2013
    Messages:
    4,532
    Likes Received:
    354
    thanks:love:
     
  5. ryualviss

    ryualviss Active Member

    Joined:
    Jan 6, 2014
    Messages:
    151
    Likes Received:
    516
    thanks but any chance for 1080i/p version ?
     
  6. peny20

    peny20 Well-Known Member

    Joined:
    Oct 23, 2013
    Messages:
    1,438
    Likes Received:
    31
    thanks
     
  7. snsd32

    snsd32 Member

    Joined:
    Jan 24, 2014
    Messages:
    32
    Likes Received:
    1
    Thanks!
     
  8. Dfrazzer

    Dfrazzer Super Moderator Staff Member Super Moderator Capper V . I . P. Donor

    Joined:
    Nov 4, 2013
    Messages:
    4,170
    Likes Received:
    8,802
    Selena looks amazing.
     
  9. riv

    riv Member

    Joined:
    Feb 24, 2014
    Messages:
    60
    Likes Received:
    0
  10. deleriumdj

    deleriumdj Member

    Joined:
    Mar 20, 2014
    Messages:
    27
    Likes Received:
    0
  11. misen06101998

    misen06101998 Member

    Joined:
    Feb 5, 2014
    Messages:
    95
    Likes Received:
    9
     
  12. amandeeps777

    amandeeps777 Member

    Joined:
    Jul 11, 2014
    Messages:
    38
    Likes Received:
    1
  13. 777josem

    777josem Well-Known Member V . I . P. Uploader

    Joined:
    Sep 1, 2014
    Messages:
    3,166
    Likes Received:
    1,754
    Thank you
     
  14. Robad

    Robad New Member

    Joined:
    Dec 20, 2014
    Messages:
    22
    Likes Received:
    0
    thank you
     
  15. buffnfaith

    buffnfaith Member

    Joined:
    Jun 24, 2014
    Messages:
    108
    Likes Received:
    8
    Thank you
     
  16. SriMalchik

    SriMalchik Member

    Joined:
    Oct 6, 2015
    Messages:
    37
    Likes Received:
    0
    Great tnx
     
  17. janito33

    janito33 Member

    Joined:
    Dec 10, 2014
    Messages:
    136
    Likes Received:
    1
    buen video gracias
     
  18. zhxliveing

    zhxliveing Member

    Joined:
    Sep 7, 2016
    Messages:
    383
    Likes Received:
    19
    thanks
     
  19. crisxcx

    crisxcx Member

    Joined:
    Dec 5, 2016
    Messages:
    117
    Likes Received:
    1
    thyx<3
     
  20. ifuseekme

    ifuseekme Member

    Joined:
    Jun 26, 2016
    Messages:
    62
    Likes Received:
    2
  21. hanshermann

    hanshermann Well-Known Member

    Joined:
    Aug 24, 2016
    Messages:
    3,807
    Likes Received:
    29
    wahts taht