Selena Gomez & The Scene - Falling Down (DISNEYHD-720p-DD5.1)

Discussion in 'DISNEY HD' started by Dfrazzer, Apr 25, 2014.

  1. Dfrazzer

    Dfrazzer Super Moderator Staff Member Super Moderator Capper V . I . P. Donor

    Joined:
    Nov 4, 2013
    Messages:
    4,330
    Likes Received:
    9,237
    [​IMG] [​IMG] [​IMG] [​IMG] [​IMG] [​IMG] [​IMG] [​IMG] [​IMG] [​IMG] [​IMG] [​IMG] [​IMG] [​IMG] [​IMG] [​IMG] [​IMG] [​IMG]

    Code:
    General
    ID : 1 (0x1)
    Complete name : C:\Users\Darren\Desktop\SGFD.ts
    Format : MPEG-TS
    File size : 328 MiB
    Duration : 3mn 2s
    Overall bit rate mode : Variable
    Overall bit rate : 15.1 Mbps
    
    Video
    ID : 17 (0x11)
    Menu ID : 1 (0x1)
    Format : MPEG Video
    Commercial name : HDV 720p
    Format version : Version 2
    Format profile : [email protected]
    Format settings, BVOP : Yes
    Format settings, Matrix : Custom
    Format settings, GOP : Variable
    Codec ID : 2
    Duration : 3mn 1s
    Bit rate mode : Variable
    Bit rate : 14.0 Mbps
    Maximum bit rate : 18.0 Mbps
    Width : 1 280 pixels
    Height : 720 pixels
    Display aspect ratio : 16:9
    Frame rate : 59.940 fps
    Color space : YUV
    Chroma subsampling : 4:2:0
    Bit depth : 8 bits
    Scan type : Progressive
    Compression mode : Lossy
    Bits/(Pixel*Frame) : 0.253
    Time code of first frame : 00:00:00;00
    Time code source : Group of pictures header
    Stream size : 303 MiB (92%)
    
    Audio
    ID : 20 (0x14)
    Menu ID : 1 (0x1)
    Format : AC-3
    Format/Info : Audio Coding 3
    Mode extension : CM (complete main)
    Format settings, Endianness : Big
    Codec ID : 129
    Duration : 3mn 1s
    Bit rate mode : Constant
    Bit rate : 384 Kbps
    Channel(s) : 6 channels
    Channel positions : Front: L C R, Side: L R, LFE
    Sampling rate : 48.0 KHz
    Bit depth : 16 bits
    Compression mode : Lossy
    Stream size : 8.33 MiB (3%)
    Language : English
    
    Hidden Content:
    You must reply before you can see the hidden data contained here.
    Credit to original capper.
     
    Last edited: Sep 15, 2015
    Vinny, sanad khandelwal, Binh and 2 others like this.
  2. Loading...


  3. DETOX

    DETOX K-POP fan ♡ V . I . P. Uploader

    Joined:
    Feb 20, 2014
    Messages:
    3,000
    Likes Received:
    20,158
    Thank you so much!!! :)
     
  4. joelh20101

    joelh20101 Well-Known Member

    Joined:
    Nov 4, 2013
    Messages:
    1,460
    Likes Received:
    143
  5. Marko11

    Marko11 Member

    Joined:
    Dec 28, 2013
    Messages:
    137
    Likes Received:
    4
    Thanks.
     
  6. Binh

    Binh Member

    Joined:
    Nov 18, 2013
    Messages:
    86
    Likes Received:
    1
    Thank you
     
  7. ericbook

    ericbook Member

    Joined:
    Jan 3, 2014
    Messages:
    202
    Likes Received:
    3
    gracias por el video amigos
     
  8. celio

    celio Member

    Joined:
    Oct 29, 2013
    Messages:
    965
    Likes Received:
    16
    good good
     
  9. ytyh

    ytyh Member

    Joined:
    Mar 30, 2014
    Messages:
    432
    Likes Received:
    4
    Thanks
     
  10. Vagabond

    Vagabond Member

    Joined:
    Jun 23, 2014
    Messages:
    171
    Likes Received:
    0
    Thank you!!
     
  11. PedroCorrea

    PedroCorrea Active Member

    Joined:
    Aug 21, 2014
    Messages:
    358
    Likes Received:
    40
  12. Crusha

    Crusha Well-Known Member Capper

    Joined:
    Oct 15, 2014
    Messages:
    2,350
    Likes Received:
    2,421
    thanks
     
  13. Dfrazzer

    Dfrazzer Super Moderator Staff Member Super Moderator Capper V . I . P. Donor

    Joined:
    Nov 4, 2013
    Messages:
    4,330
    Likes Received:
    9,237
    Re-uploaded to new file host.
     
  14. ancor

    ancor Member

    Joined:
    Dec 28, 2014
    Messages:
    111
    Likes Received:
    1
    Thank you
     
  15. bhjfghcfgh

    bhjfghcfgh Member

    Joined:
    Dec 27, 2014
    Messages:
    36
    Likes Received:
    0
    Thank you
     
  16. fisherTW

    fisherTW Well-Known Member

    Joined:
    Dec 3, 2014
    Messages:
    1,569
    Likes Received:
    175
    Thank you.:)
     
  17. hapiny

    hapiny Member

    Joined:
    Nov 24, 2014
    Messages:
    545
    Likes Received:
    9
    thank you
     
  18. Vinny

    Vinny Active Member

    Joined:
    Dec 26, 2013
    Messages:
    3,214
    Likes Received:
    19
    Thanks a lot!
     
  19. Hyrus

    Hyrus Arianator / Selenator / Victorian / Saxobeat / LBS Donor

    Joined:
    Feb 9, 2015
    Messages:
    1,206
    Likes Received:
    836
    Thanks a lot
    @Dfrazzer both links are dead. Can you please re-upload?
     
    Last edited: Sep 14, 2015
  20. Dfrazzer

    Dfrazzer Super Moderator Staff Member Super Moderator Capper V . I . P. Donor

    Joined:
    Nov 4, 2013
    Messages:
    4,330
    Likes Received:
    9,237
    I just added a new link to my post.
     
    Hyrus likes this.
  21. Trop1cal

    Trop1cal Member

    Joined:
    Feb 5, 2015
    Messages:
    540
    Likes Received:
    12
    Thank you very much.