CC Selena Gomez - Slow Down (MUCHHD-1080i-DD5.1-AmazonBoy) [CC]

Discussion in 'MUCH HD' started by RGF72K, Oct 2, 2013.

  1. RGF72K

    RGF72K ????? Staff Member Super Moderator

    Joined:
    Oct 1, 2013
    Messages:
    1,020
    Likes Received:
    13,856
    [​IMG]



    Format : MPEG-TS
    File size : 318 MiB
    Duration : 3mn 25s
    Overall bit rate mode : Variable
    Overall bit rate : 13.0 Mbps
    Movie name : New Music Videos
    Law rating : E

    Video
    ID : 3953 (0xF71)
    Menu ID : 1 (0x1)
    Format : MPEG Video
    Format version : Version 2
    Format profile : [email protected]
    Format settings, BVOP : Yes
    Format settings, Matrix : Custom
    Format settings, GOP : Variable
    Codec ID : 2
    Duration : 3mn 25s
    Bit rate mode : Variable
    Bit rate : 11.9 Mbps
    Maximum bit rate : 24.0 Mbps
    Width : 1 920 pixels
    Height : 1 080 pixels
    Display aspect ratio : 16:9
    Frame rate : 29.970 fps
    Color space : YUV
    Chroma subsampling : 4:2:0
    Bit depth : 8 bits
    Compression mode : Lossy
    Bits/(Pixel*Frame) : 0.192
    Time code of first frame : 00:00:00;00
    Time code source : Group of pictures header
    Stream size : 293 MiB (92%)
    Writing library : (c) 1998-2012 Womble Multimedia, Inc. / MPEG Video Wizard DVD 5.0.1.100 (03/2011) / Sep 22 2012

    Audio
    ID : 3954 (0xF72)
    Menu ID : 1 (0x1)
    Format : AC-3
    Format/Info : Audio Coding 3
    Mode extension : CM (complete main)
    Format settings, Endianness : Big
    Codec ID : 129
    Duration : 3mn 25s
    Bit rate mode : Constant
    Bit rate : 384 Kbps
    Channel(s) : 6 channels
    Channel positions : Front: L C R, Side: L R, LFE
    Sampling rate : 48.0 KHz
    Bit depth : 16 bits
    Compression mode : Lossy
    Stream size : 9.40 MiB (3%)
    Language : English

    Text #1
    ID : 3953 (0xF71)-CC1
    Menu ID : 1 (0x1)
    Format : EIA-608
    Muxing mode : A/53 / DTVCC Transport
    Muxing mode, more info : Muxed in Video #1
    Duration : 3mn 25s
    Bit rate mode : Constant
    Stream size : 0.00 Byte (0%)

    Text #2
    ID : 3953 (0xF71)-1
    Menu ID : 1 (0x1)
    Format : EIA-708
    Muxing mode : A/53 / DTVCC Transport
    Muxing mode, more info : Muxed in Video #1
    Duration : 3mn 25s
    Bit rate mode : Constant
    Stream size : 0.00 Byte (0%)


    Link:
    Hidden Content:
    You must reply before you can see the hidden data contained here.

    Download:
    Hidden Content:
    You must either reply or click 'Like' to see the hidden information contained here.

    Credits to the original Capper
     
    Last edited by a moderator: Nov 2, 2016
  2. Loading...


  3. edgar

    edgar Well-Known Member

    Joined:
    Oct 12, 2013
    Messages:
    1,363
    Likes Received:
    1,227
    thanks
     
  4. Kenny Sun

    Kenny Sun Member

    Joined:
    Oct 8, 2013
    Messages:
    130
    Likes Received:
    18
  5. elejido10

    elejido10 Member

    Joined:
    Oct 27, 2013
    Messages:
    189
    Likes Received:
    0
  6. Danielrc

    Danielrc Member

    Joined:
    Nov 24, 2013
    Messages:
    81
    Likes Received:
    3
    thank you
     
  7. lit

    lit New Member

    Joined:
    Jan 16, 2014
    Messages:
    4
    Likes Received:
    0
    thanks
     
  8. quake2

    quake2 Active Member

    Joined:
    Oct 11, 2014
    Messages:
    769
    Likes Received:
    30
  9. arcangel

    arcangel Member

    Joined:
    Nov 30, 2014
    Messages:
    77
    Likes Received:
    0
    Thanks.
     
  10. Dfrazzer

    Dfrazzer Super Moderator Staff Member Super Moderator Capper V . I . P. Donor

    Joined:
    Nov 4, 2013
    Messages:
    3,830
    Likes Received:
    7,515
    Thank you.
     
  11. submariner9728

    submariner9728 Member

    Joined:
    Dec 26, 2014
    Messages:
    700
    Likes Received:
    9
    thanks you
     
  12. Emilly Nobre

    Emilly Nobre Member

    Joined:
    May 27, 2015
    Messages:
    70
    Likes Received:
    3
     
  13. krest

    krest Member

    Joined:
    May 31, 2015
    Messages:
    208
    Likes Received:
    2
    thank you!!!!!!!!!!!!
     
  14. lukierrywhere

    lukierrywhere Member

    Joined:
    May 1, 2015
    Messages:
    157
    Likes Received:
    1
  15. jessy

    jessy New Member

    Joined:
    Jun 15, 2015
    Messages:
    28
    Likes Received:
    0
    thanks you
     
  16. Ray031

    Ray031 Member

    Joined:
    Jul 11, 2015
    Messages:
    294
    Likes Received:
    6
    Thank You
     
  17. baby_kitty

    baby_kitty Member

    Joined:
    Oct 10, 2015
    Messages:
    70
    Likes Received:
    1
  18. larryxd

    larryxd New Member

    Joined:
    Jun 3, 2016
    Messages:
    15
    Likes Received:
    1
    gracias
     
  19. rimisark

    rimisark Member

    Joined:
    Jul 22, 2016
    Messages:
    133
    Likes Received:
    2
    hgwehwea
     
  20. rimisark

    rimisark Member

    Joined:
    Jul 22, 2016
    Messages:
    133
    Likes Received:
    2
    hwahweha
     
  21. Blunder

    Blunder Member

    Joined:
    Mar 27, 2016
    Messages:
    329
    Likes Received:
    3
    thanks