Selena Gomez - Same Old Love MTV Live HD 1080i HDMania

Discussion in 'MTV LIVE HD' started by Dfrazzer, Nov 1, 2015.

  1. Dfrazzer

    Dfrazzer Super Moderator Staff Member Super Moderator Capper V . I . P. Donor

    Joined:
    Nov 4, 2013
    Messages:
    3,988
    Likes Received:
    8,108
    [​IMG] [​IMG] [​IMG] [​IMG] [​IMG] [​IMG] [​IMG] [​IMG] [​IMG] [​IMG] [​IMG] [​IMG] [​IMG] [​IMG] [​IMG] [​IMG]

    Code:
    General
    ID : 1 (0x1)
    Complete name : C:\Users\Dfrazzer\Desktop\Selena Gomez - Same Old Love MTV Live HD 1080i HDMania.ts
    Format : MPEG-TS
    File size : 389 MiB
    Duration : 4mn 20s
    Overall bit rate mode : Variable
    Overall bit rate : 12.5 Mbps
    
    Video
    ID : 100 (0x64)
    Menu ID : 2 (0x2)
    Format : AVC
    Format/Info : Advanced Video Codec
    Format profile : [email protected]
    Format settings, CABAC : Yes
    Format settings, ReFrames : 2 frames
    Codec ID : 27
    Duration : 4mn 20s
    Bit rate mode : Variable
    Bit rate : 11.7 Mbps
    Maximum bit rate : 24.0 Mbps
    Width : 1 920 pixels
    Height : 1 080 pixels
    Display aspect ratio : 16:9
    Frame rate : 25.000 fps
    Color space : YUV
    Chroma subsampling : 4:2:0
    Bit depth : 8 bits
    Scan type : Interlaced
    Scan order : Top Field First
    Bits/(Pixel*Frame) : 0.225
    Stream size : 363 MiB (93%)
    Color primaries : BT.709
    Transfer characteristics : BT.709
    Matrix coefficients : BT.709
    
    Audio
    ID : 101 (0x65)
    Menu ID : 2 (0x2)
    Format : AAC
    Format/Info : Advanced Audio Codec
    Format version : Version 4
    Format profile : LC
    Muxing mode : ADTS
    Codec ID : 15
    Duration : 4mn 20s
    Bit rate mode : Variable
    Bit rate : 220 Kbps
    Channel(s) : 2 channels
    Channel positions : Front: L R
    Sampling rate : 48.0 KHz
    Compression mode : Lossy
    Stream size : 6.83 MiB (2%)
    
    Hidden Content:
    You must reply before you can see the hidden data contained here.
    Capped by me.
     
    Ray031, rhea and 777josem like this.
  2. Loading...


  3. nolynexor88

    nolynexor88 Active Member

    Joined:
    Sep 29, 2015
    Messages:
    904
    Likes Received:
    34
    Thank you.
     
  4. benja

    benja Well-Known Member

    Joined:
    Jan 8, 2014
    Messages:
    1,028
    Likes Received:
    62
    Thank you
     
  5. Crusha

    Crusha Well-Known Member Capper

    Joined:
    Oct 15, 2014
    Messages:
    2,350
    Likes Received:
    2,212
    thank you :)
     
  6. santa321

    santa321 Active Member

    Joined:
    Dec 7, 2013
    Messages:
    1,221
    Likes Received:
    23
    thank you
     
  7. Grailen

    Grailen Well-Known Member

    Joined:
    Oct 8, 2013
    Messages:
    559
    Likes Received:
    639
    thank you
     
  8. aturner18

    aturner18 Active Member

    Joined:
    Oct 2, 2014
    Messages:
    967
    Likes Received:
    96
    thank u . (that shit it tears me up) love it
     
  9. Trop1cal

    Trop1cal Member

    Joined:
    Feb 5, 2015
    Messages:
    512
    Likes Received:
    10
    What a Beauty. Thank you.
     
  10. Hyrus

    Hyrus Arianator / Selenator / Victorian / LBS* Donor

    Joined:
    Feb 9, 2015
    Messages:
    1,126
    Likes Received:
    676
    Thanks a lot for the beautiful Selena :D:love:
     
  11. 777josem

    777josem Well-Known Member Uploader

    Joined:
    Sep 1, 2014
    Messages:
    2,556
    Likes Received:
    1,380
    Thank you so much!
     
  12. rhea

    rhea Well-Known Member

    Joined:
    Jan 6, 2014
    Messages:
    5,541
    Likes Received:
    309
    thank you so much :)
     
  13. Zatimi

    Zatimi Active Member

    Joined:
    Aug 27, 2014
    Messages:
    628
    Likes Received:
    72
    thanks so much
     
  14. Ray031

    Ray031 Member

    Joined:
    Jul 11, 2015
    Messages:
    316
    Likes Received:
    8
    Thank You
     
  15. tf135

    tf135 Well-Known Member

    Joined:
    Nov 14, 2014
    Messages:
    1,722
    Likes Received:
    103
    thank you
     
  16. shahed_sarwar

    shahed_sarwar Member

    Joined:
    May 7, 2014
    Messages:
    172
    Likes Received:
    0
  17. conaughey

    conaughey Active Member

    Joined:
    Feb 3, 2014
    Messages:
    201
    Likes Received:
    59
    Awesome, thank You!
     
  18. BetaKsi

    BetaKsi Well-Known Member

    Joined:
    Oct 18, 2015
    Messages:
    798
    Likes Received:
    316
    Selena - pretty))) Thank you)))
     
  19. Joe1240

    Joe1240 Well-Known Member

    Joined:
    Apr 3, 2014
    Messages:
    478
    Likes Received:
    347
    Thanks for Selena!
     
  20. Dreamer

    Dreamer Lana Del Rey ♥ Capper Uploader

    Joined:
    Dec 4, 2014
    Messages:
    2,391
    Likes Received:
    2,411
    Thank you so much! :)
     
  21. Blunder

    Blunder Member

    Joined:
    Mar 27, 2016
    Messages:
    343
    Likes Received:
    3
    thanks