Selena Gomez - Same Old Love (LPCM 24 bits-Master-ProRes-1080p) [MEGA/cloud.mail.ru]

Discussion in 'PRORES' started by DETOX, Feb 4, 2016.

  1. DETOX

    DETOX Well-Known Member V . I . P. Uploader

    Joined:
    Feb 20, 2014
    Messages:
    2,860
    Likes Received:
    17,264
    [​IMG]
    Code:
    General
    Complete name                            : Selena Gomez - Same Old Love (LPCM-Master-ProRes-1080p).mov
    Format                                   : MPEG-4
    Format profile                           : QuickTime
    Codec ID                                 : qt  
    File size                                : 3.22 GiB
    Duration                                 : 4mn 24s
    Overall bit rate mode                    : Variable
    Overall bit rate                         : 105 Mbps
    Encoded date                             : UTC 2016-02-02 18:43:19
    Tagged date                              : UTC 2016-02-01 18:45:39
    Writing library                          : aapl
    ©TIM                                     : 00:00:00:00
    ©TSC                                     : 24000
    ©TSZ                                     : 1001
    
    Video
    ID                                       : 1
    Format                                   : ProRes
    Format version                           : Version 0
    Format profile                           : 422
    Codec ID                                 : apcn
    Duration                                 : 4mn 24s
    Bit rate mode                            : Variable
    Bit rate                                 : 102 Mbps
    Width                                    : 1 920 pixels
    Height                                   : 1 080 pixels
    Display aspect ratio                     : 16:9
    Frame rate mode                          : Constant
    Frame rate                               : 23.976 fps
    Color space                              : YUV
    Chroma subsampling                       : 4:2:2
    Scan type                                : Progressive
    Bits/(Pixel*Frame)                       : 2.059
    Stream size                              : 3.15 GiB (98%)
    Writing library                          : Apple
    Language                                 : English
    Encoded date                             : UTC 2016-02-02 18:43:19
    Tagged date                              : UTC 2016-02-02 18:43:19
    Color primaries                          : BT.709
    Transfer characteristics                 : BT.709
    Matrix coefficients                      : BT.709
    
    Audio
    ID                                       : 2
    Format                                   : PCM
    Format settings, Endianness              : Little
    Format settings, Sign                    : Unsigned
    Codec ID                                 : in24
    Duration                                 : 4mn 24s
    Bit rate mode                            : Constant
    Bit rate                                 : 2 304 Kbps
    Channel(s)                               : 2 channels
    Channel positions                        : Front: L R
    Sampling rate                            : 48.0 KHz
    Bit depth                                : 24 bits
    Stream size                              : 72.5 MiB (2%)
    Language                                 : English
    Encoded date                             : UTC 2016-02-02 18:43:19
    Tagged date                              : UTC 2016-02-02 18:43:19
    
    Other
    ID                                       : 3
    Type                                     : Time code
    Format                                   : QuickTime TC
    Duration                                 : 4mn 24s
    Time code of first frame                 : 00:00:00:00
    Time code, striped                       : Yes
    Language                                 : English
    Encoded date                             : UTC 2016-02-02 18:43:19
    Tagged date                              : UTC 2016-02-02 18:43:19
    Server: cloud.mail.ru, MEGA
    Hidden Content:
    You must reply before you can see the hidden data contained here.
     
    Last edited: Feb 4, 2016
    thatonedread, Arturo, djxxx and 15 others like this.
  2. Loading...


  3. NicoleScherzy

    NicoleScherzy Well-Known Member V . I . P.

    Joined:
    May 14, 2015
    Messages:
    928
    Likes Received:
    522
    Thank you :victory:
     
    hakob and alex like this.
  4. vnnloser

    vnnloser New Member

    Joined:
    Feb 3, 2016
    Messages:
    21
    Likes Received:
    0
    Thank you :)
     
  5. Ray031

    Ray031 Member

    Joined:
    Jul 11, 2015
    Messages:
    322
    Likes Received:
    8
    Thank You
     
  6. edgar

    edgar Well-Known Member

    Joined:
    Oct 12, 2013
    Messages:
    1,530
    Likes Received:
    1,464
    Thank you very much!:love::love::love::love::love::love:
     
  7. Athos

    Athos Active Member

    Joined:
    Dec 28, 2013
    Messages:
    189
    Likes Received:
    89
    Thank you
     
  8. danixat

    danixat Katycat ^-^ Capper V . I . P. Donor

    Joined:
    Feb 23, 2014
    Messages:
    1,165
    Likes Received:
    6,362
    Thanks! :victory:
     
    alex likes this.
  9. Colby

    Colby Member

    Joined:
    Oct 31, 2015
    Messages:
    121
    Likes Received:
    1
    thanks :)
     
  10. nino.navy

    nino.navy Well-Known Member

    Joined:
    May 30, 2014
    Messages:
    1,753
    Likes Received:
    54
    thanks very veryy much
     
  11. Lassox

    Lassox Active Member Capper

    Joined:
    Oct 10, 2013
    Messages:
    159
    Likes Received:
    236
    thank you
     
  12. benja

    benja Well-Known Member

    Joined:
    Jan 8, 2014
    Messages:
    1,071
    Likes Received:
    62
    Thank you so much DETOX!!!
     
  13. Amir Hossien

    Amir Hossien Member

    Joined:
    Feb 6, 2014
    Messages:
    735
    Likes Received:
    21
    thank you
     
  14. kalo

    kalo Member

    Joined:
    May 25, 2015
    Messages:
    338
    Likes Received:
    13
    thanks
     
  15. Dfrazzer

    Dfrazzer Super Moderator Staff Member Super Moderator Capper V . I . P. Donor

    Joined:
    Nov 4, 2013
    Messages:
    4,067
    Likes Received:
    8,440
    Thanks so much for this video in amazing quality.
     
    alex likes this.
  16. flexia

    flexia New Member

    Joined:
    Oct 7, 2013
    Messages:
    25
    Likes Received:
    0
    Thanks
     
  17. Djodjara

    Djodjara Gwen Fan Capper

    Joined:
    Sep 6, 2014
    Messages:
    714
    Likes Received:
    1,175
    Thank you so much!
     
  18. joelh20101

    joelh20101 Well-Known Member

    Joined:
    Nov 4, 2013
    Messages:
    1,459
    Likes Received:
    143
    thanks for this
     
  19. krest

    krest Member

    Joined:
    May 31, 2015
    Messages:
    225
    Likes Received:
    2
    Thank you
     
  20. Leonardo7777777

    Leonardo7777777 Member

    Joined:
    Jan 3, 2016
    Messages:
    235
    Likes Received:
    11
    thank for share
     
  21. Evens01

    Evens01 Member

    Joined:
    Feb 5, 2016
    Messages:
    227
    Likes Received:
    4
    thanks