Selena Gomez - Hands To Myself (VEVOtv HDTV-1080i 29Mbps) Danixat-HDMania

Discussion in 'VEVOtv' started by danixat, Mar 25, 2016.

  1. danixat

    danixat Katycat ^-^ Capper V . I . P. Donor

    Joined:
    Feb 23, 2014
    Messages:
    1,145
    Likes Received:
    6,173
    [​IMG]
    [​IMG]
    [​IMG]
    [​IMG]
    Code:
    General
    ID                             : 1 (0x1)
    Complete name                  : K:\Selena Gomez - Hands To Myself (VEVOtv HDTV-1080i 29Mbps) Danixat-HDMania.ts
    Format                         : MPEG-TS
    File size                      : 793 MiB
    Duration                       : 3mn 47s
    Overall bit rate mode          : Variable
    Overall bit rate               : 29.2 Mbps
    
    Video
    ID                             : 100 (0x64)
    Menu ID                        : 2 (0x2)
    Format                         : AVC
    Format/Info                    : Advanced Video Codec
    Format profile                 : [email protected]
    Format settings, CABAC         : Yes
    Format settings, ReFrames      : 2 frames
    Codec ID                       : 27
    Duration                       : 3mn 47s
    Bit rate mode                  : Variable
    Bit rate                       : 27.6 Mbps
    Maximum bit rate               : 15.0 Mbps
    Width                          : 1 920 pixels
    Height                         : 1 080 pixels
    Display aspect ratio           : 16:9
    Frame rate                     : 25.000 fps
    Color space                    : YUV
    Chroma subsampling             : 4:2:0
    Bit depth                      : 8 bits
    Scan type                      : MBAFF
    Bits/(Pixel*Frame)             : 0.532
    Stream size                    : 748 MiB (94%)
    
    Audio
    ID                             : 101 (0x65)
    Menu ID                        : 2 (0x2)
    Format                         : AAC
    Format/Info                    : Advanced Audio Codec
    Format version                 : Version 4
    Format profile                 : LC
    Muxing mode                    : ADTS
    Codec ID                       : 15
    Duration                       : 3mn 47s
    Bit rate mode                  : Variable
    Bit rate                       : 212 Kbps
    Channel(s)                     : 2 channels
    Channel positions              : Front: L R
    Sampling rate                  : 48.0 KHz
    Compression mode               : Lossy
    Delay relative to video        : -16ms
    Stream size                    : 5.74 MiB (1%)

    [​IMG]

    Download:
    Hidden Content:
    You must either reply or click 'Like' to see the hidden information contained here.
    CAPPED BY ME :victory:
     
  2. Loading...


  3. edgar

    edgar Well-Known Member

    Joined:
    Oct 12, 2013
    Messages:
    1,498
    Likes Received:
    1,422
    Thank you soo much!! :love::love::love:
     
  4. joelh20101

    joelh20101 Well-Known Member

    Joined:
    Nov 4, 2013
    Messages:
    1,459
    Likes Received:
    140
    thanks for this
     
  5. Hyrus

    Hyrus Arianator / Selenator / Victorian / LBS* Donor

    Joined:
    Feb 9, 2015
    Messages:
    1,131
    Likes Received:
    678
    Thanks for the gorgeous Selena :D
     
  6. mizdot

    mizdot Active Member

    Joined:
    Nov 13, 2014
    Messages:
    1,226
    Likes Received:
    24
    tnx man
     
  7. xinia23

    xinia23 New Member

    Joined:
    Feb 16, 2016
    Messages:
    5
    Likes Received:
    0
    GRACIAS!
     
  8. GHN

    GHN Member

    Joined:
    Oct 27, 2014
    Messages:
    422
    Likes Received:
    10
    thank you
     
  9. Blunder

    Blunder Member

    Joined:
    Mar 27, 2016
    Messages:
    343
    Likes Received:
    3
    thanks.
     
  10. free2world

    free2world Member

    Joined:
    Apr 2, 2016
    Messages:
    101
    Likes Received:
    2
  11. hapiny

    hapiny Member

    Joined:
    Nov 24, 2014
    Messages:
    492
    Likes Received:
    7
    thank you
     
  12. slill

    slill Member

    Joined:
    Jul 25, 2014
    Messages:
    929
    Likes Received:
    11
    thanks
     
  13. Hossein Enr7que

    Hossein Enr7que Active Member

    Joined:
    May 13, 2016
    Messages:
    426
    Likes Received:
    170
  14. ALP3R

    ALP3R Member

    Joined:
    Apr 19, 2014
    Messages:
    125
    Likes Received:
    3
    thank you hehe
     
  15. seregil

    seregil Member

    Joined:
    Sep 5, 2014
    Messages:
    103
    Likes Received:
    1
    thanks
     
  16. varand_ic

    varand_ic Member

    Joined:
    Jan 4, 2016
    Messages:
    87
    Likes Received:
    0
    tnx . . .
     
  17. GreyKangaroo13tmz

    GreyKangaroo13tmz Member

    Joined:
    Mar 11, 2017
    Messages:
    35
    Likes Received:
    0