Selena Gomez - Hands To Myself (MULTISHOW.HD.1080i.DD5.1).-Crusha

Discussion in 'MULTISHOW HD' started by Crusha, Mar 4, 2016.

  1. Crusha

    Crusha Well-Known Member Capper

    Joined:
    Oct 15, 2014
    Messages:
    2,350
    Likes Received:
    2,131
    [​IMG] [​IMG] [​IMG] [​IMG] [​IMG] [​IMG] [​IMG]

    Mediainfo
    General
    ID : 1 (0x1)
    Complete name : Selena Gomez - Hands To Myself (MULTISHOW.HD.1080i.DD5.1).-Crusha.ts
    Format : MPEG-TS
    File size : 81.2 MiB
    Duration : 3mn 26s
    Overall bit rate mode : Variable
    Overall bit rate : 3 295 Kbps

    Video
    ID : 2593 (0xA21)
    Menu ID : 2542 (0x9EE)
    Format : AVC
    Format/Info : Advanced Video Codec
    Format profile : High@L4
    Format settings, CABAC : Yes
    Format settings, ReFrames : 4 frames
    Codec ID : 27
    Duration : 3mn 26s
    Bit rate : 2 744 Kbps
    Width : 1 920 pixels
    Height : 1 080 pixels
    Display aspect ratio : 16:9
    Frame rate : 29.970 fps
    Standard : Component
    Color space : YUV
    Chroma subsampling : 4:2:0
    Bit depth : 8 bits
    Scan type : MBAFF
    Scan order : Top Field First
    Bits/(Pixel*Frame) : 0.044
    Stream size : 67.6 MiB (83%)
    Color range : Limited
    Color primaries : BT.709
    Transfer characteristics : BT.709
    Matrix coefficients : BT.709

    Audio
    ID : 3593 (0xE09)
    Menu ID : 2542 (0x9EE)
    Format : AC-3
    Format/Info : Audio Coding 3
    Mode extension : CM (complete main)
    Format settings, Endianness : Big
    Codec ID : 6
    Duration : 3mn 26s
    Bit rate mode : Constant
    Bit rate : 384 Kbps
    Channel(s) : 6 channels
    Channel positions : Front: L C R, Side: L R, LFE
    Sampling rate : 48.0 KHz
    Bit depth : 16 bits
    Compression mode : Lossy
    Stream size : 9.46 MiB (12%)
    Language : Portuguese

    Hidden Content:
    You must reply before you can see the hidden data contained here.
    Password:
    crusha
     
    Ray031 likes this.
  2. Loading...


  3. Ray031

    Ray031 Member

    Joined:
    Jul 11, 2015
    Messages:
    296
    Likes Received:
    6
    Thank You
     
  4. AndresMas

    AndresMas Member

    Joined:
    Oct 25, 2015
    Messages:
    205
    Likes Received:
    4
    thanks
     
  5. shunic

    shunic Member

    Joined:
    Feb 13, 2016
    Messages:
    74
    Likes Received:
    0
    Thank you :)
     
  6. Ramones

    Ramones Member

    Joined:
    Nov 11, 2015
    Messages:
    96
    Likes Received:
    2
    Thank you
     
  7. mg2244

    mg2244 Member

    Joined:
    Aug 12, 2014
    Messages:
    83
    Likes Received:
    2
    Thank you
     
  8. maurohachen

    maurohachen Member

    Joined:
    Feb 24, 2015
    Messages:
    390
    Likes Received:
    14
  9. nvid

    nvid New Member

    Joined:
    Sep 5, 2016
    Messages:
    27
    Likes Received:
    0
    Thank you
     
  10. Pedro16

    Pedro16 Member

    Joined:
    Jan 16, 2017
    Messages:
    55
    Likes Received:
    0
    Thanks