CC Selena Gomez - Come & Get It (MUCHHD-1080i-DD5.1-AmazonBoy) [CC]

Discussion in 'MUCH HD' started by DETOX, Jan 15, 2016.

  1. DETOX

    DETOX Well-Known Member V . I . P. Uploader

    Joined:
    Feb 20, 2014
    Messages:
    2,584
    Likes Received:
    12,102
    [​IMG]
    Code:
    General
    ID                                       : 1 (0x1)
    Complete name                            : Selena Gomez - Come & Get It (MUCHHD-1080i-DD5.1-AmazonBoy) [CC].ts
    Format                                   : MPEG-TS
    File size                                : 407 MiB
    Duration                                 : 4mn 42s
    Overall bit rate mode                    : Variable
    Overall bit rate                         : 12.1 Mbps
    Maximum Overall bit rate                 : 35.5 Mbps
    Movie name                               : New Music Videos
    Law rating                               : E
    
    Video
    ID                                       : 4113 (0x1011)
    Menu ID                                  : 1 (0x1)
    Format                                   : MPEG Video
    Format version                           : Version 2
    Format profile                           : [email protected]
    Format settings, BVOP                    : Yes
    Format settings, Matrix                  : Custom
    Format settings, GOP                     : Variable
    Format settings, picture structure       : Frame
    Codec ID                                 : 2
    Duration                                 : 4mn 42s
    Bit rate mode                            : Variable
    Bit rate                                 : 11.1 Mbps
    Maximum bit rate                         : 24.0 Mbps
    Width                                    : 1 920 pixels
    Height                                   : 1 080 pixels
    Display aspect ratio                     : 16:9
    Frame rate                               : 29.970 fps
    Color space                              : YUV
    Chroma subsampling                       : 4:2:0
    Bit depth                                : 8 bits
    Scan type                                : Interlaced
    Scan order                               : Top Field First
    Compression mode                         : Lossy
    Bits/(Pixel*Frame)                       : 0.178
    Time code of first frame                 : 00:00:00;00
    Time code source                         : Group of pictures header
    Stream size                              : 374 MiB (92%)
    
    Audio
    ID                                       : 4352 (0x1100)
    Menu ID                                  : 1 (0x1)
    Format                                   : AC-3
    Format/Info                              : Audio Coding 3
    Mode extension                           : CM (complete main)
    Format settings, Endianness              : Big
    Codec ID                                 : 129
    Duration                                 : 4mn 42s
    Bit rate mode                            : Constant
    Bit rate                                 : 384 Kbps
    Channel(s)                               : 6 channels
    Channel positions                        : Front: L C R, Side: L R, LFE
    Sampling rate                            : 48.0 KHz
    Bit depth                                : 16 bits
    Compression mode                         : Lossy
    Stream size                              : 12.9 MiB (3%)
    Language                                 : English
    
    Text #1
    ID                                       : 4113 (0x1011)-CC1
    Menu ID                                  : 1 (0x1)
    Format                                   : EIA-608
    Muxing mode                              : A/53 / DTVCC Transport
    Muxing mode, more info                   : Muxed in Video #1
    Duration                                 : 4mn 42s
    Bit rate mode                            : Constant
    Stream size                              : 0.00 Byte (0%)
    
    Text #2
    ID                                       : 4113 (0x1011)-1
    Menu ID                                  : 1 (0x1)
    Format                                   : EIA-708
    Muxing mode                              : A/53 / DTVCC Transport
    Muxing mode, more info                   : Muxed in Video #1
    Duration                                 : 4mn 42s
    Bit rate mode                            : Constant
    Stream size                              : 0.00 Byte (0%)
    Server: cloud.mail.ru
    Hidden Content:
    You must reply before you can see the hidden data contained here.
     
    BadGuy and Dfrazzer like this.
  2. Loading...


  3. Dfrazzer

    Dfrazzer Super Moderator Staff Member Super Moderator Capper V . I . P. Donor

    Joined:
    Nov 4, 2013
    Messages:
    3,820
    Likes Received:
    7,485
    Thank you this is a great video.
     
  4. Hyrus

    Hyrus Arianator / Selenator / Victorian / LBS* Donor

    Joined:
    Feb 9, 2015
    Messages:
    1,059
    Likes Received:
    515
    Thanks a lot for the cute Selena :happy::D
     
  5. fisherTW

    fisherTW Well-Known Member

    Joined:
    Dec 3, 2014
    Messages:
    1,402
    Likes Received:
    159
    Thank you.:)
     
  6. Ray031

    Ray031 Member

    Joined:
    Jul 11, 2015
    Messages:
    294
    Likes Received:
    6
    Thank You
     
  7. alrjandro

    alrjandro New Member

    Joined:
    Jan 14, 2016
    Messages:
    7
    Likes Received:
    0
  8. Snorom6

    Snorom6 Well-Known Member Uploader

    Joined:
    Dec 17, 2015
    Messages:
    4,246
    Likes Received:
    3,249
  9. hungquocphan

    hungquocphan Member

    Joined:
    Nov 1, 2013
    Messages:
    433
    Likes Received:
    9
    thank for share
     
  10. drulo

    drulo New Member

    Joined:
    Jan 25, 2016
    Messages:
    23
    Likes Received:
    0
    Thank for share
     
  11. Vergamin

    Vergamin Member

    Joined:
    Nov 10, 2015
    Messages:
    161
    Likes Received:
    8
    thank you
     
  12. BadGuy

    BadGuy Member

    Joined:
    Dec 4, 2015
    Messages:
    68
    Likes Received:
    50
    tnxyyyyyyyy
     
  13. shing000

    shing000 Member

    Joined:
    Mar 13, 2016
    Messages:
    527
    Likes Received:
    12
    gracias
     
  14. MrPrash

    MrPrash New Member

    Joined:
    Oct 4, 2016
    Messages:
    27
    Likes Received:
    1
    Thanks.
     
  15. Blunder

    Blunder Member

    Joined:
    Mar 27, 2016
    Messages:
    328
    Likes Received:
    3
    Thanks.
     
  16. Outlaw

    Outlaw Member

    Joined:
    Sep 25, 2016
    Messages:
    108
    Likes Received:
    2
    Can You Reupload the Video? Plz
     
    Last edited: Nov 15, 2016
  17. revilo18

    revilo18 Well-Known Member

    Joined:
    May 26, 2016
    Messages:
    1,255
    Likes Received:
    50
    THANKKKK
     
  18. hanshermann

    hanshermann Active Member

    Joined:
    Aug 24, 2016
    Messages:
    1,216
    Likes Received:
    1
    wahts taht