Selena Gomez - Another Cinderella Story 1080p Blu-ray

Discussion in 'Interviews / TV shows / Others' started by Dfrazzer, Oct 22, 2015.

  1. Dfrazzer

    Dfrazzer Super Moderator Staff Member Super Moderator Capper V . I . P. Donor

    Joined:
    Nov 4, 2013
    Messages:
    6,137
    Likes Received:
    16,469
    Requested by: aturner18

    Selena Gomez Tell Me Something I Don't Know - Another Cinderella Story 1080p Blu-ray


    [​IMG] [​IMG] [​IMG] [​IMG] [​IMG] [​IMG]

    Code:
    General
    ID : 1 (0x1)
    Complete name : C:\Users\Dfrazzer\Videos\Selena Gomez Tell Me Something I Don't Know - Another Cinderella Story 1080p Blu-ray.m2ts
    Format : BDAV
    Format/Info : Blu-ray Video
    File size : 205 MiB
    Duration : 40s 375ms
    Overall bit rate mode : Variable
    Overall bit rate : 42.6 Mbps
    Maximum Overall bit rate : 35.5 Mbps
    
    Video
    ID : 4113 (0x1011)
    Menu ID : 1 (0x1)
    Format : AVC
    Format/Info : Advanced Video Codec
    Format profile : Main@L5.0
    Format settings, CABAC : Yes
    Format settings, ReFrames : 1 frame
    Codec ID : 27
    Duration : 40s 437ms
    Bit rate : 39.0 Mbps
    Width : 1 920 pixels
    Height : 1 080 pixels
    Display aspect ratio : 16:9
    Frame rate mode : Variable
    Color space : YUV
    Chroma subsampling : 4:2:0
    Bit depth : 8 bits
    Scan type : Progressive
    Stream size : 195 MiB (95%)
    Writing library : x264 core 129
    Encoding settings : cabac=1 / ref=1 / deblock=1:0:0 / analyse=0x1:0x131 / me=dia / subme=2 / psy=1 / psy_rd=1.00:0.00 / mixed_ref=0 / me_range=16 / chroma_me=1 / trellis=0 / 8x8dct=0 / cqm=0 / deadzone=21,11 / fast_pskip=1 / chroma_qp_offset=0 / threads=8 / lookahead_threads=1 / sliced_threads=0 / nr=0 / decimate=1 / interlaced=0 / bluray_compat=0 / constrained_intra=0 / bframes=0 / weightp=2 / keyint=250 / keyint_min=25 / scenecut=40 / intra_refresh=0 / rc_lookahead=40 / rc=abr / mbtree=1 / bitrate=39000 / ratetol=1.0 / qcomp=0.60 / qpmin=10 / qpmax=51 / qpstep=4 / ip_ratio=1.41 / aq=1:1.00
    
    Audio
    ID : 4352 (0x1100)
    Menu ID : 1 (0x1)
    Format : AC-3
    Format/Info : Audio Coding 3
    Mode extension : CM (complete main)
    Format settings, Endianness : Big
    Codec ID : 129
    Duration : 40s 480ms
    Bit rate mode : Constant
    Bit rate : 512 Kbps
    Channel(s) : 6 channels
    Channel positions : Front: L C R, Side: L R, LFE
    Sampling rate : 48.0 KHz
    Bit depth : 16 bits
    Compression mode : Lossy
    Stream size : 2.47 MiB (1%)
    

    Hidden Content:
    You must reply before you can see the hidden data contained here.
    ---
    Selena Gomez New Classic - Another Cinderella Story 1080p Blu-ray

    [​IMG] [​IMG] [​IMG] [​IMG] [​IMG] [​IMG]

    Code:
    General
    ID : 1 (0x1)
    Complete name : C:\Users\Dfrazzer\Videos\Selena Gomez New Classic - Another Cinderella Story 1080p Blu-ray.m2ts
    Format : BDAV
    Format/Info : Blu-ray Video
    File size : 1.19 GiB
    Duration : 4mn 3s
    Overall bit rate mode : Variable
    Overall bit rate : 41.9 Mbps
    Maximum Overall bit rate : 35.5 Mbps
    
    Video
    ID : 4113 (0x1011)
    Menu ID : 1 (0x1)
    Format : AVC
    Format/Info : Advanced Video Codec
    Format profile : Main@L5.0
    Format settings, CABAC : Yes
    Format settings, ReFrames : 1 frame
    Codec ID : 27
    Duration : 4mn 3s
    Bit rate : 39.0 Mbps
    Width : 1 920 pixels
    Height : 1 080 pixels
    Display aspect ratio : 16:9
    Frame rate mode : Variable
    Color space : YUV
    Chroma subsampling : 4:2:0
    Bit depth : 8 bits
    Scan type : Progressive
    Stream size : 1.13 GiB (95%)
    Writing library : x264 core 129
    Encoding settings : cabac=1 / ref=1 / deblock=1:0:0 / analyse=0x1:0x131 / me=dia / subme=2 / psy=1 / psy_rd=1.00:0.00 / mixed_ref=0 / me_range=16 / chroma_me=1 / trellis=0 / 8x8dct=0 / cqm=0 / deadzone=21,11 / fast_pskip=1 / chroma_qp_offset=0 / threads=8 / lookahead_threads=1 / sliced_threads=0 / nr=0 / decimate=1 / interlaced=0 / bluray_compat=0 / constrained_intra=0 / bframes=0 / weightp=2 / keyint=250 / keyint_min=25 / scenecut=40 / intra_refresh=0 / rc_lookahead=40 / rc=abr / mbtree=1 / bitrate=39000 / ratetol=1.0 / qcomp=0.60 / qpmin=10 / qpmax=51 / qpstep=4 / ip_ratio=1.41 / aq=1:1.00
    
    Audio
    ID : 4352 (0x1100)
    Menu ID : 1 (0x1)
    Format : AC-3
    Format/Info : Audio Coding 3
    Mode extension : CM (complete main)
    Format settings, Endianness : Big
    Codec ID : 129
    Duration : 4mn 3s
    Bit rate mode : Constant
    Bit rate : 512 Kbps
    Channel(s) : 6 channels
    Channel positions : Front: L C R, Side: L R, LFE
    Sampling rate : 48.0 KHz
    Bit depth : 16 bits
    Compression mode : Lossy
    Stream size : 14.9 MiB (1%)
    

    Hidden Content:
    You must reply before you can see the hidden data contained here.
    ---
    Selena Gomez Bang A Drum - Another Cinderella Story 1080p Blu-ray

    [​IMG] [​IMG] [​IMG] [​IMG] [​IMG] [​IMG]

    Code:
    General
    ID : 1 (0x1)
    Complete name : C:\Users\Dfrazzer\Videos\Selena Gomez Bang A Drum - Another Cinderella Story 1080p Blu-ray.m2ts
    Format : BDAV
    Format/Info : Blu-ray Video
    File size : 450 MiB
    Duration : 1mn 30s
    Overall bit rate mode : Variable
    Overall bit rate : 41.6 Mbps
    Maximum Overall bit rate : 35.5 Mbps
    
    Video
    ID : 4113 (0x1011)
    Menu ID : 1 (0x1)
    Format : AVC
    Format/Info : Advanced Video Codec
    Format profile : Main@L5.0
    Format settings, CABAC : Yes
    Format settings, ReFrames : 1 frame
    Codec ID : 27
    Duration : 1mn 30s
    Bit rate : 39.0 Mbps
    Width : 1 920 pixels
    Height : 1 080 pixels
    Display aspect ratio : 16:9
    Frame rate mode : Variable
    Color space : YUV
    Chroma subsampling : 4:2:0
    Bit depth : 8 bits
    Scan type : Progressive
    Stream size : 427 MiB (95%)
    Writing library : x264 core 129
    Encoding settings : cabac=1 / ref=1 / deblock=1:0:0 / analyse=0x1:0x131 / me=dia / subme=2 / psy=1 / psy_rd=1.00:0.00 / mixed_ref=0 / me_range=16 / chroma_me=1 / trellis=0 / 8x8dct=0 / cqm=0 / deadzone=21,11 / fast_pskip=1 / chroma_qp_offset=0 / threads=8 / lookahead_threads=1 / sliced_threads=0 / nr=0 / decimate=1 / interlaced=0 / bluray_compat=0 / constrained_intra=0 / bframes=0 / weightp=2 / keyint=250 / keyint_min=25 / scenecut=40 / intra_refresh=0 / rc_lookahead=40 / rc=abr / mbtree=1 / bitrate=39000 / ratetol=1.0 / qcomp=0.60 / qpmin=10 / qpmax=51 / qpstep=4 / ip_ratio=1.41 / aq=1:1.00
    
    Audio
    ID : 4352 (0x1100)
    Menu ID : 1 (0x1)
    Format : AC-3
    Format/Info : Audio Coding 3
    Mode extension : CM (complete main)
    Format settings, Endianness : Big
    Codec ID : 129
    Duration : 1mn 30s
    Bit rate mode : Constant
    Bit rate : 512 Kbps
    Channel(s) : 6 channels
    Channel positions : Front: L C R, Side: L R, LFE
    Sampling rate : 48.0 KHz
    Bit depth : 16 bits
    Compression mode : Lossy
    Stream size : 5.55 MiB (1%)
    

    Hidden Content:
    You must reply before you can see the hidden data contained here.
    ---
    Selena Gomez rehearsing - Another Cinderella Story 1080p Blu-ray

    [​IMG] [​IMG] [​IMG] [​IMG] [​IMG] [​IMG]

    Code:
    General
    ID : 1 (0x1)
    Complete name : C:\Users\Dfrazzer\Videos\Selena Gomez rehearsing - Another Cinderella Story 1080p Blu-ray\BDMV\STREAM\Selena Gomez rehearsing - Another Cinderella Story 1080p Blu-ray.m2ts
    Format : BDAV
    Format/Info : Blu-ray Video
    File size : 1.33 GiB
    Duration : 4mn 36s
    Overall bit rate mode : Variable
    Overall bit rate : 41.2 Mbps
    Maximum Overall bit rate : 35.5 Mbps
    
    Video
    ID : 4113 (0x1011)
    Menu ID : 1 (0x1)
    Format : AVC
    Format/Info : Advanced Video Codec
    Format profile : Main@L5.0
    Format settings, CABAC : Yes
    Format settings, ReFrames : 1 frame
    Format settings, GOP : N=1
    Codec ID : 27
    Duration : 4mn 36s
    Bit rate : 39.0 Mbps
    Width : 1 920 pixels
    Height : 1 080 pixels
    Display aspect ratio : 16:9
    Frame rate mode : Variable
    Color space : YUV
    Chroma subsampling : 4:2:0
    Bit depth : 8 bits
    Scan type : Progressive
    Stream size : 1.26 GiB (95%)
    Writing library : x264 core 129
    Encoding settings : cabac=1 / ref=1 / deblock=1:0:0 / analyse=0x1:0x131 / me=dia / subme=2 / psy=1 / psy_rd=1.00:0.00 / mixed_ref=0 / me_range=16 / chroma_me=1 / trellis=0 / 8x8dct=0 / cqm=0 / deadzone=21,11 / fast_pskip=1 / chroma_qp_offset=0 / threads=8 / lookahead_threads=1 / sliced_threads=0 / nr=0 / decimate=1 / interlaced=0 / bluray_compat=0 / constrained_intra=0 / bframes=0 / weightp=2 / keyint=250 / keyint_min=25 / scenecut=40 / intra_refresh=0 / rc_lookahead=40 / rc=abr / mbtree=1 / bitrate=39000 / ratetol=1.0 / qcomp=0.60 / qpmin=10 / qpmax=51 / qpstep=4 / ip_ratio=1.41 / aq=1:1.00
    
    Audio
    ID : 4352 (0x1100)
    Menu ID : 1 (0x1)
    Format : AC-3
    Format/Info : Audio Coding 3
    Mode extension : CM (complete main)
    Format settings, Endianness : Big
    Codec ID : 129
    Duration : 4mn 36s
    Bit rate mode : Constant
    Bit rate : 512 Kbps
    Channel(s) : 6 channels
    Channel positions : Front: L C R, Side: L R, LFE
    Sampling rate : 48.0 KHz
    Bit depth : 16 bits
    Compression mode : Lossy
    Stream size : 16.9 MiB (1%)
    

    Hidden Content:
    You must reply before you can see the hidden data contained here.
    Original ripper: TrollHD
     
    Last edited: Feb 18, 2016
  2. Loading...


  3. Hyrus

    Hyrus Arianator / Selenator / Victorian / Saxobeat / LBS Donor

    Joined:
    Feb 9, 2015
    Messages:
    1,560
    Likes Received:
    1,657
    Wonderful!! Thanks a lot for the cute Selena :happy::D
     
  4. eduardom03

    eduardom03 Member

    Joined:
    Mar 3, 2015
    Messages:
    321
    Likes Received:
    20
    thank you so much!
     
  5. rhea

    rhea Well-Known Member

    Joined:
    Jan 6, 2014
    Messages:
    10,318
    Likes Received:
    1,849
    thank you so much :)
     
  6. Cesar

    Cesar Member

    Joined:
    Nov 11, 2013
    Messages:
    547
    Likes Received:
    23
    thank you
     
  7. alex

    alex Well-Known Member

    Joined:
    Nov 21, 2013
    Messages:
    4,607
    Likes Received:
    435
    Thank you so much
     
  8. renegade

    renegade Member Donor

    Joined:
    Jan 28, 2014
    Messages:
    136
    Likes Received:
    10
    thank you :)
     
  9. hungquocphan

    hungquocphan Active Member

    Joined:
    Nov 1, 2013
    Messages:
    866
    Likes Received:
    38
    thank for share
     
  10. edgar

    edgar Well-Known Member

    Joined:
    Oct 12, 2013
    Messages:
    2,703
    Likes Received:
    2,757
    Thank you so much
     
  11. aturner18

    aturner18 Well-Known Member

    Joined:
    Oct 2, 2014
    Messages:
    1,979
    Likes Received:
    202
    thanks the rehearsal is where her she on the other side of the mirror and then her stepmother calls her.
     
  12. Dfrazzer

    Dfrazzer Super Moderator Staff Member Super Moderator Capper V . I . P. Donor

    Joined:
    Nov 4, 2013
    Messages:
    6,137
    Likes Received:
    16,469
    I'll add the rehearsal bit.
     
  13. aturner18

    aturner18 Well-Known Member

    Joined:
    Oct 2, 2014
    Messages:
    1,979
    Likes Received:
    202
    thanks <3 those scenes
     
  14. Dfrazzer

    Dfrazzer Super Moderator Staff Member Super Moderator Capper V . I . P. Donor

    Joined:
    Nov 4, 2013
    Messages:
    6,137
    Likes Received:
    16,469
    I just added the rehearsal scene.
     
    aturner18 likes this.
  15. Hyrus

    Hyrus Arianator / Selenator / Victorian / Saxobeat / LBS Donor

    Joined:
    Feb 9, 2015
    Messages:
    1,560
    Likes Received:
    1,657
    Thanks a lot for sharing these clips in HD. Actually I just watched the movie yesterday. Not that good but every film where Selena appears is a 'must watch' :)
     
  16. AndresMas

    AndresMas Member

    Joined:
    Oct 25, 2015
    Messages:
    479
    Likes Received:
    11
     
  17. abcde54321

    abcde54321 Well-Known Member

    Joined:
    Apr 6, 2014
    Messages:
    1,088
    Likes Received:
    33
    aaa okayyy
     
  18. pomodoro_2013

    pomodoro_2013 Member

    Joined:
    Nov 17, 2013
    Messages:
    463
    Likes Received:
    16
    Thank you very much.:love::love:
     
  19. joelh20101

    joelh20101 Well-Known Member

    Joined:
    Nov 4, 2013
    Messages:
    1,553
    Likes Received:
    164
    thanks for this
     
  20. payam95

    payam95 New Member

    Joined:
    Jul 17, 2015
    Messages:
    17
    Likes Received:
    0
    many thanks
     
  21. Trop1cal

    Trop1cal Member

    Joined:
    Feb 5, 2015
    Messages:
    833
    Likes Received:
    19
    Thank you very much