DVD Selena Gomez and The Scene - Naturally (Dave Aude Radio Edit) (Promo Only) [VOB]

Discussion in 'SD' started by claudio1301, Aug 4, 2020.

  1. claudio1301

    claudio1301 Well-Known Member

    Joined:
    Oct 2, 2018
    Messages:
    1,390
    Likes Received:
    2,928
    [​IMG]
    Code:
    General
    Complete name                  : Selena Gomez and The Scene - Naturally (Dave Aude Radio Edit) (Promo Only).vob
    Format                         : MPEG-PS
    File size                      : 195 MiB
    Duration                       : 4 min 0 s
    Overall bit rate mode          : Variable
    Overall bit rate               : 6 794 kb/s
    
    Video
    ID                             : 224 (0xE0)
    Format                         : MPEG Video
    Format version                 : Version 2
    Format profile                 : Main@Main
    Format settings                : CustomMatrix / BVOP
    Format settings, BVOP          : Yes
    Format settings, Matrix        : Custom
    Format settings, GOP           : Variable
    Format settings, picture struc : Frame
    Duration                       : 4 min 0 s
    Bit rate mode                  : Variable
    Bit rate                       : 5 123 kb/s
    Maximum bit rate               : 8 000 kb/s
    Width                          : 720 pixels
    Height                         : 480 pixels
    Display aspect ratio           : 4:3
    Frame rate                     : 29.970 (30000/1001) FPS
    Standard                       : NTSC
    Color space                    : YUV
    Chroma subsampling             : 4:2:0
    Bit depth                      : 8 bits
    Scan type                      : Interlaced
    Scan order                     : Top Field First
    Compression mode               : Lossy
    Bits/(Pixel*Frame)             : 0.495
    Time code of first frame       : 00:00:00:00
    Time code source               : Group of pictures header
    GOP, Open/Closed               : Closed
    Stream size                    : 147 MiB (75%)
    Color primaries                : BT.601 PAL
    Transfer characteristics       : BT.470 System B/G
    Matrix coefficients            : FCC 73.682
    
    Audio
    ID                             : 189 (0xBD)-160 (0xA0)
    Format                         : PCM
    Format settings                : Big / Signed
    Muxing mode                    : DVD-Video
    Duration                       : 4 min 0 s
    Bit rate mode                  : Constant
    Bit rate                       : 1 536 kb/s
    Channel(s)                     : 2 channels
    Sampling rate                  : 48.0 kHz
    Bit depth                      : 16 bits
    Stream size                    : 44.1 MiB (23%)
    
    Menu
    Host: Mediafire
    Hidden Content:
    You must reply before you can see the hidden data contained here.
     
    eks22 likes this.
  2. Loading...


  3. Madleblancxx21

    Madleblancxx21 Active Member

    Joined:
    Nov 28, 2018
    Messages:
    649
    Likes Received:
    104
  4. Tiger0970

    Tiger0970 Member

    Joined:
    Aug 25, 2019
    Messages:
    112
    Likes Received:
    6
  5. raul31291

    raul31291 Member

    Joined:
    Jun 10, 2016
    Messages:
    54
    Likes Received:
    5
    Heyy selena love
     
  6. jfsilva28

    jfsilva28 Well-Known Member

    Joined:
    May 9, 2018
    Messages:
    1,813
    Likes Received:
    161
    Gracias