HDTV Selena Gomez - A Year Without Rain (The Ellen DeGeneres Show 22.09.2010) HD-1080i

Discussion in 'HD Live Performances' started by hanshermann, Dec 2, 2017.

  1. hanshermann

    hanshermann Well-Known Member Uploader

    Joined:
    Aug 24, 2016
    Messages:
    6,309
    Likes Received:
    9,009
    [​IMG]

    Selena Gomez - A Year Without Rain (The Ellen DeGeneres Show 22.09.2010) HD-1080i

    Code:
    General
    Complete name               : Selena Gomez - A Year Without Rain (The Ellen DeGeneres Show 22.09.2010) HD-1080i.mpg
    Format                      : MPEG-PS
    File size                   : 400 MiB
    Duration                    : 4 min 4 s
    Overall bit rate mode       : Variable
    Overall bit rate            : 13.7 Mb/s
    Movie name                  : Ellen DeGeneres Show, The
    Law rating                  : TV-G
    
    Video
    ID                          : 224 (0xE0)
    Format                      : MPEG Video
    Format version              : Version 2
    Format profile              : Main@High
    Format settings, BVOP       : Yes
    Format settings, Matrix     : Custom
    Format settings, GOP        : Variable
    Format settings, picture st : Frame
    Duration                    : 4 min 4 s
    Bit rate mode               : Variable
    Bit rate                    : 13.1 Mb/s
    Maximum bit rate            : 65.0 Mb/s
    Width                       : 1 920 pixels
    Height                      : 1 080 pixels
    Display aspect ratio        : 16:9
    Active Format Description   : Full frame 16:9 image
    Frame rate                  : 29.970 (30000/1001) FPS
    Color space                 : YUV
    Chroma subsampling          : 4:2:0
    Bit depth                   : 8 bits
    Scan type                   : Interlaced
    Scan order                  : Top Field First
    Compression mode            : Lossy
    Bits/(Pixel*Frame)          : 0.210
    Time code of first frame    : 00:00:00;00
    Time code source            : Group of pictures header
    Stream size                 : 381 MiB (95%)
    
    Audio
    ID                          : 189 (0xBD)-128 (0x80)
    Format                      : AC-3
    Format/Info                 : Audio Coding 3
    Format settings, Endianness : Big
    Muxing mode                 : DVD-Video
    Duration                    : 4 min 4 s
    Bit rate mode               : Constant
    Bit rate                    : 384 kb/s
    Channel(s)                  : 6 channels
    Channel positions           : Front: L C R, Side: L R, LFE
    Sampling rate               : 48.0 kHz
    Frame rate                  : 31.250 FPS (1536 spf)
    Bit depth                   : 16 bits
    Compression mode            : Lossy
    Stream size                 : 11.2 MiB (3%)
    Service kind                : Complete Main
    
    Hidden Content:
    You must either reply or click 'Like' to see the hidden information contained here.
     
    Last edited: Apr 14, 2018
  2. Loading...


  3. rhea

    rhea Well-Known Member

    Joined:
    Jan 6, 2014
    Messages:
    7,787
    Likes Received:
    984
    thanks
     
  4. sylvieyunjae

    sylvieyunjae Active Member

    Joined:
    Feb 29, 2016
    Messages:
    833
    Likes Received:
    39
    thanksss
     
  5. 010juninho

    010juninho Well-Known Member

    Joined:
    Jan 16, 2016
    Messages:
    1,031
    Likes Received:
    40
  6. AndresMas

    AndresMas Member

    Joined:
    Oct 25, 2015
    Messages:
    316
    Likes Received:
    8
    thanks
     
  7. uminomiyako

    uminomiyako Well-Known Member

    Joined:
    May 28, 2016
    Messages:
    2,318
    Likes Received:
    91
  8. Pavulon

    Pavulon Well-Known Member Donor

    Joined:
    Mar 22, 2016
    Messages:
    4,479
    Likes Received:
    889
    thanks
     
  9. tf135

    tf135 Well-Known Member

    Joined:
    Nov 14, 2014
    Messages:
    3,064
    Likes Received:
    181
    thanks
     
  10. apl3

    apl3 Active Member

    Joined:
    Jun 11, 2017
    Messages:
    981
    Likes Received:
    28
    thanks
     
  11. Chris

    Chris Active Member

    Joined:
    Oct 19, 2013
    Messages:
    737
    Likes Received:
    25
    Thank you
     
  12. Jessica2jung

    Jessica2jung Member

    Joined:
    Aug 21, 2017
    Messages:
    513
    Likes Received:
    4
  13. jazminealice

    jazminealice Member

    Joined:
    Sep 21, 2014
    Messages:
    155
    Likes Received:
    1
  14. frisby

    frisby Well-Known Member

    Joined:
    Nov 21, 2015
    Messages:
    1,415
    Likes Received:
    132
    thanks
     
  15. ulygatore

    ulygatore Well-Known Member

    Joined:
    Jun 29, 2017
    Messages:
    1,192
    Likes Received:
    59
  16. Fabien Fournier

    Fabien Fournier Active Member

    Joined:
    Nov 14, 2013
    Messages:
    646
    Likes Received:
    69
    Thanks
     
  17. mathalbuqrq

    mathalbuqrq Member

    Joined:
    Dec 11, 2015
    Messages:
    159
    Likes Received:
    13
  18. D3mon86

    D3mon86 Member

    Joined:
    Dec 19, 2016
    Messages:
    849
    Likes Received:
    13
    thanks
     
  19. multimediafm

    multimediafm Well-Known Member Donor

    Joined:
    Mar 27, 2014
    Messages:
    12,654
    Likes Received:
    983
  20. MarkHorax

    MarkHorax Well-Known Member

    Joined:
    Dec 10, 2016
    Messages:
    471
    Likes Received:
    483
  21. antonioshk

    antonioshk Member

    Joined:
    Nov 24, 2016
    Messages:
    37
    Likes Received:
    1
    gracias .a disfruitar