Selena Gomez - A Year Without Rain (DISNEYHD-1080i-AAC2.0-Dfrazzer)-HDMania

Discussion in 'DISNEY HD' started by Dfrazzer, Sep 17, 2014.

  1. Dfrazzer

    Dfrazzer Super Moderator Staff Member Super Moderator Capper V . I . P. Donor

    Joined:
    Nov 4, 2013
    Messages:
    3,941
    Likes Received:
    7,924
    Requested by: Armx

    [​IMG] [​IMG] [​IMG] [​IMG] [​IMG] [​IMG] [​IMG] [​IMG] [​IMG] [​IMG] [​IMG] [​IMG] [​IMG] [​IMG] [​IMG] [​IMG] [​IMG] [​IMG] [​IMG] [​IMG] [​IMG]

    Code:
    General
    ID : 1 (0x1)
    Complete name : C:\Users\Dfrazzer\Downloads\Selena_Gomez_-_A_Year_Without_Rain_(Disney_Channel_HD)_HD-1080i_Upscale.ts
    Format : MPEG-TS
    File size : 248 MiB
    Duration : 3mn 36s
    Overall bit rate mode : Variable
    Overall bit rate : 9 628 Kbps
    
    Video
    ID : 4113 (0x1011)
    Menu ID : 1 (0x1)
    Format : AVC
    Format/Info : Advanced Video Codec
    Format profile : [email protected]
    Format settings, CABAC : Yes
    Format settings, ReFrames : 4 frames
    Format settings, GOP : M=4, N=32
    Codec ID : 27
    Duration : 3mn 36s
    Bit rate mode : Variable
    Bit rate : 8 764 Kbps
    Maximum bit rate : 20.0 Mbps
    Width : 1 920 pixels
    Height : 1 080 pixels
    Display aspect ratio : 16:9
    Frame rate : 29.970 fps
    Color space : YUV
    Chroma subsampling : 4:2:0
    Bit depth : 8 bits
    Scan type : Interlaced
    Scan order : Top Field First
    Bits/(Pixel*Frame) : 0.141
    Stream size : 226 MiB (91%)
    Color primaries : BT.709
    Transfer characteristics : BT.709
    Matrix coefficients : BT.709
    
    Audio
    ID : 4352 (0x1100)
    Menu ID : 1 (0x1)
    Format : AC-3
    Format/Info : Audio Coding 3
    Mode extension : CM (complete main)
    Format settings, Endianness : Big
    Codec ID : 129
    Duration : 3mn 35s
    Bit rate mode : Constant
    Bit rate : 384 Kbps
    Channel(s) : 2 channels
    Channel positions : Front: L R
    Sampling rate : 48.0 KHz
    Bit depth : 16 bits
    Compression mode : Lossy
    Stream size : 9.89 MiB (4%)
    Language : English
    
    Hidden Content:
    You must reply before you can see the hidden data contained here.
    Credit to original capper.
     
    Last edited: Sep 30, 2016
  2. Loading...


  3. alex

    alex Well-Known Member

    Joined:
    Nov 21, 2013
    Messages:
    4,510
    Likes Received:
    343
    :victory:
     
  4. hungquocphan

    hungquocphan Member

    Joined:
    Nov 1, 2013
    Messages:
    445
    Likes Received:
    12
    oh my god , thanks
     
  5. Joseph

    Joseph Active Member

    Joined:
    Dec 10, 2013
    Messages:
    733
    Likes Received:
    151
    thanks
     
  6. joelh20101

    joelh20101 Well-Known Member

    Joined:
    Nov 4, 2013
    Messages:
    1,459
    Likes Received:
    136
  7. sanad khandelwal

    sanad khandelwal Well-Known Member

    Joined:
    Mar 14, 2014
    Messages:
    178
    Likes Received:
    261
    thanksssssssssssssssssss
     
  8. aturner18

    aturner18 Active Member

    Joined:
    Oct 2, 2014
    Messages:
    887
    Likes Received:
    94
    can u tell me what's diffrent
     
  9. Crusha

    Crusha Well-Known Member Capper

    Joined:
    Oct 15, 2014
    Messages:
    2,350
    Likes Received:
    2,174
    thanks
     
  10. azamusic

    azamusic Active Member Capper

    Joined:
    Dec 6, 2013
    Messages:
    467
    Likes Received:
    93
    thanks
     
  11. santa321

    santa321 Active Member

    Joined:
    Dec 7, 2013
    Messages:
    1,194
    Likes Received:
    22
    thanks
     
  12. xilak

    xilak Member

    Joined:
    May 20, 2014
    Messages:
    699
    Likes Received:
    7
    thanks
     
  13. mcusman2012

    mcusman2012 New Member

    Joined:
    Nov 9, 2014
    Messages:
    15
    Likes Received:
    0
  14. peny20

    peny20 Active Member

    Joined:
    Oct 23, 2013
    Messages:
    1,368
    Likes Received:
    23
    thanks
     
  15. ancor

    ancor Member

    Joined:
    Dec 28, 2014
    Messages:
    111
    Likes Received:
    1
    Thank you, but gone unfortunately
     
    Last edited: Dec 29, 2014
  16. Dfrazzer

    Dfrazzer Super Moderator Staff Member Super Moderator Capper V . I . P. Donor

    Joined:
    Nov 4, 2013
    Messages:
    3,941
    Likes Received:
    7,924
    I have it on my laptop I'll reupload it in a few minutes.
     
    alex likes this.
  17. Dfrazzer

    Dfrazzer Super Moderator Staff Member Super Moderator Capper V . I . P. Donor

    Joined:
    Nov 4, 2013
    Messages:
    3,941
    Likes Received:
    7,924
    I just added a Mega.co.nz link to my original post.
     
    alex likes this.
  18. bhjfghcfgh

    bhjfghcfgh Member

    Joined:
    Dec 27, 2014
    Messages:
    36
    Likes Received:
    0
    thank youuuuu
     
  19. bhjfghcfgh

    bhjfghcfgh Member

    Joined:
    Dec 27, 2014
    Messages:
    36
    Likes Received:
    0
    thank you
     
  20. Vinny

    Vinny Active Member

    Joined:
    Dec 26, 2013
    Messages:
    1,820
    Likes Received:
    8
    Thanks! ;D
     
  21. Dfrazzer

    Dfrazzer Super Moderator Staff Member Super Moderator Capper V . I . P. Donor

    Joined:
    Nov 4, 2013
    Messages:
    3,941
    Likes Received:
    7,924
    I just added a new link to my post.
     
    alex likes this.