CC Selena Gomes & The Scene - Hit The Lights [Azzido Da Bass Club Mix] (MUCHHD-1080i-DD5.1-AmazonBoy)

Discussion in 'MUCH HD' started by Dfrazzer, Feb 7, 2015.

  1. Dfrazzer

    Dfrazzer Super Moderator Staff Member Super Moderator Capper V . I . P. Donor

    Joined:
    Nov 4, 2013
    Messages:
    3,943
    Likes Received:
    7,933
    [​IMG]

    [​IMG] [​IMG] [​IMG] [​IMG] [​IMG] [​IMG]


    Format : MPEG-TS
    File size : 331 MiB
    Duration : 3mn 10s
    Overall bit rate mode : Variable
    Overall bit rate : 14.5 Mbps
    Maximum Overall bit rate : 35.5 Mbps
    Movie name : 906 SO YOU THINK
    Law rating : 14+

    Video
    ID : 4113 (0x1011)
    Menu ID : 1 (0x1)
    Format : MPEG Video
    Format version : Version 2
    Format profile : [email protected]
    Format settings, BVOP : Yes
    Format settings, Matrix : Custom
    Format settings, GOP : Variable
    Format settings, picture structure : Frame
    Codec ID : 2
    Duration : 3mn 10s
    Bit rate mode : Variable
    Bit rate : 13.4 Mbps
    Maximum bit rate : 20.0 Mbps
    Width : 1 920 pixels
    Height : 1 080 pixels
    Display aspect ratio : 16:9
    Frame rate : 29.970 fps
    Color space : YUV
    Chroma subsampling : 4:2:0
    Bit depth : 8 bits
    Scan type : Interlaced
    Scan order : Top Field First
    Compression mode : Lossy
    Bits/(Pixel*Frame) : 0.216
    Time code of first frame : 00:00:00;00
    Time code source : Group of pictures header
    Stream size : 306 MiB (92%)
    Writing library : (c) 1998-2011 Womble Multimedia, Inc. / MPEG Video Wizard DVD 5.0.1.100 (03/2011) / Dec 19 2011

    Audio
    ID : 4352 (0x1100)
    Menu ID : 1 (0x1)
    Format : AC-3
    Format/Info : Audio Coding 3
    Mode extension : CM (complete main)
    Format settings, Endianness : Big
    Codec ID : 129
    Duration : 3mn 10s
    Bit rate mode : Constant
    Bit rate : 384 Kbps
    Channel(s) : 6 channels
    Channel positions : Front: L C R, Side: L R, LFE
    Sampling rate : 48.0 KHz
    Bit depth : 16 bits
    Compression mode : Lossy
    Delay relative to video : 33ms
    Stream size : 8.74 MiB (3%)

    Text #1
    ID : 4113 (0x1011)-CC1
    Menu ID : 1 (0x1)
    Format : EIA-608
    Muxing mode : A/53 / DTVCC Transport
    Muxing mode, more info : Muxed in Video #1
    Duration : 3mn 10s
    Bit rate mode : Constant
    Stream size : 0.00 Byte (0%)

    Text #2
    ID : 4113 (0x1011)-1
    Menu ID : 1 (0x1)
    Format : EIA-708
    Muxing mode : A/53 / DTVCC Transport
    Muxing mode, more info : Muxed in Video #1
    Duration : 3mn 10s
    Bit rate mode : Constant
    Stream size : 0.00 Byte (0%)



    Hidden Content:
    You must reply before you can see the hidden data contained here.
    Capped by: AmazonBoy
     
    Last edited by a moderator: Oct 22, 2015
  2. Loading...


  3. 777josem

    777josem Well-Known Member Uploader

    Joined:
    Sep 1, 2014
    Messages:
    2,458
    Likes Received:
    1,334
    Thank you so much Dfrazzer :)
     
  4. rhea

    rhea Well-Known Member

    Joined:
    Jan 6, 2014
    Messages:
    5,404
    Likes Received:
    262
    thank you so much!
     
  5. santa321

    santa321 Active Member

    Joined:
    Dec 7, 2013
    Messages:
    1,194
    Likes Received:
    22
    thank you
     
  6. Oliberg

    Oliberg Member

    Joined:
    Apr 22, 2014
    Messages:
    45
    Likes Received:
    0
    thank you
     
  7. Valentina

    Valentina Member

    Joined:
    Oct 25, 2013
    Messages:
    371
    Likes Received:
    1
    thank you
     
  8. joelh20101

    joelh20101 Well-Known Member

    Joined:
    Nov 4, 2013
    Messages:
    1,459
    Likes Received:
    136
    thanks for this
     
  9. darren

    darren Member

    Joined:
    May 26, 2014
    Messages:
    90
    Likes Received:
    1
    thanx alot
     
  10. funhawg

    funhawg Member

    Joined:
    Jan 4, 2014
    Messages:
    172
    Likes Received:
    3
    thank you
     
  11. aturner18

    aturner18 Active Member

    Joined:
    Oct 2, 2014
    Messages:
    890
    Likes Received:
    94
    Thank You!
     
  12. popqazguy

    popqazguy Member

    Joined:
    Jan 19, 2015
    Messages:
    31
    Likes Received:
    3
     
  13. submariner9728

    submariner9728 Member

    Joined:
    Dec 26, 2014
    Messages:
    775
    Likes Received:
    11
  14. talata

    talata Member

    Joined:
    Nov 14, 2013
    Messages:
    255
    Likes Received:
    5
    Big thanks!
     
  15. Trop1cal

    Trop1cal Member

    Joined:
    Feb 5, 2015
    Messages:
    506
    Likes Received:
    10
    thank you very much
     
  16. Vinny

    Vinny Active Member

    Joined:
    Dec 26, 2013
    Messages:
    1,827
    Likes Received:
    8
    Thank U!
     
  17. lukierrywhere

    lukierrywhere Member

    Joined:
    May 1, 2015
    Messages:
    157
    Likes Received:
    1
  18. SriMalchik

    SriMalchik Member

    Joined:
    Oct 6, 2015
    Messages:
    37
    Likes Received:
    0
    thanks dude
     
  19. Shaki

    Shaki Member

    Joined:
    Mar 13, 2016
    Messages:
    280
    Likes Received:
    1
  20. Dreamer

    Dreamer Well-Known Member Capper Uploader

    Joined:
    Dec 4, 2014
    Messages:
    2,292
    Likes Received:
    2,131
    Thank you! :)
     
  21. edgar

    edgar Well-Known Member

    Joined:
    Oct 12, 2013
    Messages:
    1,474
    Likes Received:
    1,367
    thank you so much!