Sean Kingston feat. Nicki Minaj - Letting Go (Dutty Love) 1080i HDTV DD5.1 MPEG2-TrollHD

Discussion in 'MUSIC CHOICE' started by RGF72K, Oct 31, 2013.

  1. RGF72K

    RGF72K ????? Staff Member Super Moderator

    Joined:
    Oct 1, 2013
    Messages:
    1,020
    Likes Received:
    13,841
    [​IMG]


    Code:
          Complete name : (Music Video) Sean Kingston feat. Nicki Minaj - Letting Go (Dutty Love) 1080i HDTV DD5.1 MPEG2-TrollHD.ts
          Format : MPEG-TS
          File size : 511 MiB
          Duration : 3mn 53s
          Overall bit rate mode : Variable
          Overall bit rate : 18.3 Mbps
      Video #33
          ID : 33 (0x21)
          Menu ID : 1 (0x1)
          Format : MPEG Video
          Format version : Version 2
          Format profile : [email protected]
          Format settings, BVOP : Yes
          Format settings, Matrix : Custom
          Format settings, GOP : M=3, N=15
          Codec ID : 2
          Duration : 3mn 53s
          Bit rate mode : Variable
          Bit rate : 17.0 Mbps
          Maximum bit rate : 80.0 Mbps
          Width : 1 920 pixels
          Height : 1 080 pixels
          Display aspect ratio : 16:9
          Frame rate : 29.970 fps
          Color space : YUV
          Chroma subsampling : 4:2:0
          Bit depth : 8 bits
          Scan type : Interlaced
          Scan order : Top Field First
          Compression mode : Lossy
          Bits/(Pixel*Frame) : 0.274
          Time code of first frame : 00:00:00;00
          Time code source : Group of pictures header
          Stream size : 474 MiB (93%)
      Audio #36
          ID : 36 (0x24)
          Menu ID : 1 (0x1)
          Format : AC-3
          Format/Info : Audio Coding 3
          Mode extension : CM (complete main)
          Format settings, Endianness : Big
          Codec ID : 129
          Duration : 3mn 53s
          Bit rate mode : Constant
          Bit rate : 384 Kbps
          Channel(s) : 6 channels
          Channel positions : Front: L C R, Side: L R, LFE
          Sampling rate : 48.0 KHz
          Bit depth : 16 bits
          Compression mode : Lossy
          Stream size : 10.7 MiB (2%)
          Language : English
      Text #33-CC1
          ID : 33 (0x21)-CC1
          Menu ID : 1 (0x1)
          Format : EIA-608
          Muxing mode : A/53 / DTVCC Transport
          Muxing mode, more info : Muxed in Video #1
          Duration : 3mn 53s
          Bit rate mode : Constant
          Stream size : 0.00 Byte (0%)
      Text #33-1
          ID : 33 (0x21)-1
          Menu ID : 1 (0x1)
          Format : EIA-708
          Muxing mode : A/53 / DTVCC Transport
          Muxing mode, more info : Muxed in Video #1
          Duration : 3mn 53s
          Bit rate mode : Constant
          Stream size : 0.00 Byte (0%)


    Download:
    Hidden Content:
    You must either reply or click 'Like' to see the hidden information contained here.


    Password: sharemania.net


    Capper: TrollHD
     
    Flaxdevil, Vinny, PauloBruno and 13 others like this.
  2. pablo palormo

    pablo palormo Member

    Joined:
    Oct 27, 2013
    Messages:
    177
    Likes Received:
    2
  3. qpwoeiruty734

    qpwoeiruty734 Member

    Joined:
    Apr 17, 2014
    Messages:
    62
    Likes Received:
    0
  4. kesh1000

    kesh1000 Member

    Joined:
    May 5, 2014
    Messages:
    74
    Likes Received:
    0
    Thanks
     
  5. MCTR

    MCTR Member

    Joined:
    Feb 23, 2014
    Messages:
    275
    Likes Received:
    23
    thanks
     
  6. abdi

    abdi Well-Known Member Uploader

    Joined:
    Sep 23, 2014
    Messages:
    1,597
    Likes Received:
    2,566
    thank you
     
  7. Pavulon

    Pavulon Member

    Joined:
    Mar 22, 2016
    Messages:
    925
    Likes Received:
    10
    thanks
     
  8. rus31

    rus31 Member

    Joined:
    May 20, 2016
    Messages:
    202
    Likes Received:
    10
    thanks