HDTV Seal - Let It Snow (The Late Late Show with James Corden 12-12-2017) 1080i HDTV DD2.0 H.264-HDMania

Discussion in 'HD Live Performances' started by rgf72k, Dec 13, 2017.

  1. rgf72k

    rgf72k Founder Staff Member AdMiN Capper Uploader

    Joined:
    Oct 1, 2013
    Messages:
    1,144
    Likes Received:
    16,846
    Seal - Let It Snow (The Late Late Show with James Corden 12-12-2017)
    1080i HDTV DD2.0 H.264-HDMania

    [​IMG]
    [​IMG]
    [​IMG]

    General
    ID : 1 (0x1)
    Complete name : Seal - Let It Snow (The Late Late Show with James Corden 12-12-2017) 1080i HDTV DD2.0 H.264-HDMania.ts
    Format : MPEG-TS
    File size : 338 MiB
    Duration : 3 min 19 s
    Overall bit rate mode : Variable
    Overall bit rate : 14.2 Mb/s

    Video
    ID : 4113 (0x1011)
    Menu ID : 1 (0x1)
    Format : AVC
    Format/Info : Advanced Video Codec
    Format profile : [email protected]
    Format settings, CABAC : Yes
    Format settings, ReFrames : 4 frames
    Codec ID : 27
    Duration : 3 min 19 s
    Bit rate mode : Variable
    Bit rate : 13.1 Mb/s
    Maximum bit rate : 20.0 Mb/s
    Width : 1 920 pixels
    Height : 1 080 pixels
    Display aspect ratio : 16:9
    Frame rate : 29.970 (30000/1001) FPS
    Color space : YUV
    Chroma subsampling : 4:2:0
    Bit depth : 8 bits
    Scan type : Interlaced
    Scan type, store method : Separated fields
    Scan order : Top Field First
    Bits/(Pixel*Frame) : 0.212
    Stream size : 312 MiB (92%)
    Color range : Limited
    Color primaries : BT.709
    Transfer characteristics : BT.709
    Matrix coefficients : BT.709

    Audio
    ID : 4352 (0x1100)
    Menu ID : 1 (0x1)
    Format : AC-3
    Format/Info : Audio Coding 3
    Format settings, Endianness : Big
    Codec ID : 129
    Duration : 3 min 19 s
    Bit rate mode : Constant
    Bit rate : 384 kb/s
    Channel(s) : 2 channels
    Channel positions : Front: L R
    Sampling rate : 48.0 kHz
    Frame rate : 31.250 FPS (1536 spf)
    Bit depth : 16 bits
    Compression mode : Lossy
    Stream size : 9.12 MiB (3%)
    Language : English
    Service kind : Complete Main

    Download:
    Hidden Content:
    You must either reply or click 'Like' to see the hidden information contained here.
    Capped By Me :victory:
     
  2. Loading...


  3. CELOBRAZiL

    CELOBRAZiL Well-Known Member Capper V . I . P. Donor

    Joined:
    Oct 2, 2013
    Messages:
    4,248
    Likes Received:
    13,370
    Thank you so much my friend! :)
     
  4. tf135

    tf135 Well-Known Member

    Joined:
    Nov 14, 2014
    Messages:
    2,563
    Likes Received:
    166
    thanks
     
  5. Pavulon

    Pavulon Well-Known Member

    Joined:
    Mar 22, 2016
    Messages:
    3,808
    Likes Received:
    490
    thank you :D
     
  6. rhea

    rhea Well-Known Member

    Joined:
    Jan 6, 2014
    Messages:
    7,111
    Likes Received:
    788
    thanks
     
  7. thesparkly1

    thesparkly1 Active Member

    Joined:
    May 5, 2017
    Messages:
    641
    Likes Received:
    32
    nice. Thanks
     
  8. tom88823

    tom88823 Member

    Joined:
    Mar 13, 2014
    Messages:
    125
    Likes Received:
    10
    Thanks
     
  9. Aho0orA

    Aho0orA Member

    Joined:
    Nov 22, 2015
    Messages:
    181
    Likes Received:
    8
    thanks
     
  10. ulygatore

    ulygatore Well-Known Member

    Joined:
    Jun 29, 2017
    Messages:
    1,126
    Likes Received:
    54
  11. puppiesandkittens

    puppiesandkittens Member

    Joined:
    Jun 19, 2014
    Messages:
    179
    Likes Received:
    10
  12. apl3

    apl3 Active Member

    Joined:
    Jun 11, 2017
    Messages:
    692
    Likes Received:
    25
    thanks
     
  13. chevorodriguez

    chevorodriguez Active Member

    Joined:
    Nov 24, 2015
    Messages:
    675
    Likes Received:
    98
    excelente cantante
     
  14. ascpp

    ascpp Member

    Joined:
    Sep 11, 2016
    Messages:
    190
    Likes Received:
    12
    Thank you!
     
  15. meloman67

    meloman67 Active Member

    Joined:
    Jun 8, 2014
    Messages:
    882
    Likes Received:
    130
  16. multimediafm

    multimediafm Well-Known Member Donor

    Joined:
    Mar 27, 2014
    Messages:
    11,137
    Likes Received:
    671