Seal - Kiss From A Rose (MTVIdol-1080i-DD2.0)-Olgold

Discussion in 'MTV IDOL' started by Olgold, Aug 27, 2015.

  1. Olgold

    Olgold Well-Known Member Capper

    Joined:
    Aug 19, 2015
    Messages:
    386
    Likes Received:
    1,310
    [​IMG]
    General
    Format : MPEG-TS
    File size : 238 MiB
    Duration : 4mn 45s
    Overall bit rate mode : Variable
    Overall bit rate : 7 011 Kbps

    Video
    Format : AVC
    Format/Info : Advanced Video Codec
    Format profile : [email protected]
    Format settings, CABAC : Yes
    Format settings, ReFrames : 4 frames
    Duration : 4mn 45s
    Bit rate : 6 406 Kbps
    Width : 1 920 pixels
    Height : 1 080 pixels
    Display aspect ratio : 16:9
    Frame rate : 25.000 fps
    Standard : Component
    Color space : YUV
    Chroma subsampling : 4:2:0
    Bit depth : 8 bits
    Scan type : MBAFF
    Scan order : Top Field First
    Bits/(Pixel*Frame) : 0.124
    Stream size : 218 MiB (91%)
    Color range : Limited

    Audio
    Format : AC-3
    Format/Info : Audio Coding 3
    Mode extension : CM (complete main)
    Format settings, Endianness : Big
    Duration : 4mn 45s
    Bit rate mode : Constant
    Bit rate : 256 Kbps
    Channel(s) : 2 channels
    Channel positions : Front: L R
    Sampling rate : 48.0 KHz
    Compression mode : Lossy
    Delay relative to video : 112ms
    Stream size : 8.71 MiB (4%)
    Language : French

    Hidden Content:
    You must reply before you can see the hidden data contained here.
     
  2. Loading...


  3. rhea

    rhea Well-Known Member

    Joined:
    Jan 6, 2014
    Messages:
    5,266
    Likes Received:
    253
    thank you so much! :)
     
  4. MaggieS

    MaggieS Active Member

    Joined:
    Sep 19, 2014
    Messages:
    925
    Likes Received:
    34
     
  5. tsm897

    tsm897 Member

    Joined:
    Apr 16, 2014
    Messages:
    129
    Likes Received:
    3
    thank you
     
  6. jonathan joel 97

    jonathan joel 97 Member

    Joined:
    Oct 1, 2015
    Messages:
    85
    Likes Received:
    20
    Kiss from a rose
     
  7. wwepan

    wwepan Member

    Joined:
    Oct 21, 2015
    Messages:
    34
    Likes Received:
    0
     
  8. cero

    cero Member

    Joined:
    Nov 1, 2013
    Messages:
    82
    Likes Received:
    0
    thanks u
     
  9. J_Pablo

    J_Pablo Active Member

    Joined:
    Nov 27, 2013
    Messages:
    430
    Likes Received:
    62
    Great song! thanks for Seal
     
  10. Demo

    Demo Member

    Joined:
    Nov 14, 2015
    Messages:
    89
    Likes Received:
    0
    Thank you ! Great Capture
     
  11. Flaxdevil

    Flaxdevil Member

    Joined:
    May 25, 2014
    Messages:
    206
    Likes Received:
    6
    thanks
     
  12. akon111

    akon111 Member

    Joined:
    Dec 29, 2015
    Messages:
    167
    Likes Received:
    0
    thanks
     
  13. TrendMusic

    TrendMusic Active Member

    Joined:
    Oct 7, 2013
    Messages:
    954
    Likes Received:
    48
  14. Pavulon

    Pavulon Active Member

    Joined:
    Mar 22, 2016
    Messages:
    1,185
    Likes Received:
    12
    thanks
     
  15. tapions

    tapions Active Member

    Joined:
    Aug 30, 2016
    Messages:
    760
    Likes Received:
    53
    gracias
     
  16. HDMjuzik

    HDMjuzik Member

    Joined:
    Feb 4, 2015
    Messages:
    59
    Likes Received:
    2
    thank you so much
     
  17. badine82

    badine82 Member

    Joined:
    Oct 24, 2015
    Messages:
    200
    Likes Received:
    3
  18. vuabip

    vuabip New Member

    Joined:
    Jan 1, 2017
    Messages:
    19
    Likes Received:
    0
    thanks