Seal - Kiss From A Rose (MTVIdol-1080i-DD2.0)-Olgold

Discussion in 'MTV IDOL' started by Olgold, Aug 27, 2015.

  1. Olgold

    Olgold Well-Known Member Capper

    Joined:
    Aug 19, 2015
    Messages:
    436
    Likes Received:
    2,045
    [​IMG]
    General
    Format : MPEG-TS
    File size : 238 MiB
    Duration : 4mn 45s
    Overall bit rate mode : Variable
    Overall bit rate : 7 011 Kbps

    Video
    Format : AVC
    Format/Info : Advanced Video Codec
    Format profile : High@L4
    Format settings, CABAC : Yes
    Format settings, ReFrames : 4 frames
    Duration : 4mn 45s
    Bit rate : 6 406 Kbps
    Width : 1 920 pixels
    Height : 1 080 pixels
    Display aspect ratio : 16:9
    Frame rate : 25.000 fps
    Standard : Component
    Color space : YUV
    Chroma subsampling : 4:2:0
    Bit depth : 8 bits
    Scan type : MBAFF
    Scan order : Top Field First
    Bits/(Pixel*Frame) : 0.124
    Stream size : 218 MiB (91%)
    Color range : Limited

    Audio
    Format : AC-3
    Format/Info : Audio Coding 3
    Mode extension : CM (complete main)
    Format settings, Endianness : Big
    Duration : 4mn 45s
    Bit rate mode : Constant
    Bit rate : 256 Kbps
    Channel(s) : 2 channels
    Channel positions : Front: L R
    Sampling rate : 48.0 KHz
    Compression mode : Lossy
    Delay relative to video : 112ms
    Stream size : 8.71 MiB (4%)
    Language : French

    Hidden Content:
    You must reply before you can see the hidden data contained here.
     
    rvden, HDMjuzik, rhea and 2 others like this.
  2. Loading...


  3. rhea

    rhea Well-Known Member

    Joined:
    Jan 6, 2014
    Messages:
    11,453
    Likes Received:
    2,198
    thank you so much! :)
     
  4. MaggieS

    MaggieS Well-Known Member

    Joined:
    Sep 19, 2014
    Messages:
    1,262
    Likes Received:
    83
     
  5. tsm897

    tsm897 Member

    Joined:
    Apr 16, 2014
    Messages:
    193
    Likes Received:
    8
    thank you
     
  6. jonathan joel 97

    jonathan joel 97 Sasuke

    Joined:
    Oct 1, 2015
    Messages:
    446
    Likes Received:
    279
    Kiss from a rose
     
  7. wwepan

    wwepan Member

    Joined:
    Oct 21, 2015
    Messages:
    39
    Likes Received:
    1
     
  8. cero

    cero Member

    Joined:
    Nov 1, 2013
    Messages:
    160
    Likes Received:
    6
    thanks u
     
  9. J_Pablo

    J_Pablo Well-Known Member

    Joined:
    Nov 27, 2013
    Messages:
    1,006
    Likes Received:
    570
    Great song! thanks for Seal
     
  10. Demo

    Demo Member

    Joined:
    Nov 14, 2015
    Messages:
    171
    Likes Received:
    0
    Thank you ! Great Capture
     
  11. Flaxdevil

    Flaxdevil Member

    Joined:
    May 25, 2014
    Messages:
    285
    Likes Received:
    14
    thanks
     
  12. akon111

    akon111 Well-Known Member

    Joined:
    Dec 29, 2015
    Messages:
    681
    Likes Received:
    440
    thanks
     
  13. TrendMusic

    TrendMusic Well-Known Member

    Joined:
    Oct 7, 2013
    Messages:
    2,223
    Likes Received:
    262
  14. Pavulon

    Pavulon Well-Known Member Donor

    Joined:
    Mar 22, 2016
    Messages:
    5,031
    Likes Received:
    1,644
    thanks
     
  15. tapions

    tapions Well-Known Member

    Joined:
    Aug 30, 2016
    Messages:
    1,249
    Likes Received:
    127
    gracias
     
  16. HDMjuzik

    HDMjuzik Member

    Joined:
    Feb 4, 2015
    Messages:
    79
    Likes Received:
    5
    thank you so much
     
  17. badine82

    badine82 Member

    Joined:
    Oct 24, 2015
    Messages:
    571
    Likes Received:
    18
  18. vuabip

    vuabip New Member

    Joined:
    Jan 1, 2017
    Messages:
    19
    Likes Received:
    1
    thanks
     
  19. rvden

    rvden Well-Known Member

    Joined:
    Apr 9, 2017
    Messages:
    997
    Likes Received:
    739
    Great song!
     
  20. mygod257-1977

    mygod257-1977 Member

    Joined:
    Dec 23, 2016
    Messages:
    187
    Likes Received:
    10
    Thanks for sharing!!!!
     
  21. thesparkly1

    thesparkly1 Well-Known Member

    Joined:
    May 5, 2017
    Messages:
    1,302
    Likes Received:
    109
    Thanks