DVD Sara Bareilles - Love Song (Vob, Mixmash)

Discussion in 'SD' started by markitomg, Nov 16, 2018.

  1. markitomg

    markitomg Well-Known Member

    Joined:
    May 24, 2016
    Messages:
    1,691
    Likes Received:
    1,397
    [​IMG]

    Code:
    Format                         : MPEG-PS
    File size                      : 294 MiB
    Duration                       : 4mn 14s
    Overall bit rate mode          : Variable
    Overall bit rate               : 9 674 Kbps
    
    Video
    ID                             : 224 (0xE0)
    Format                         : MPEG Video
    Format version                 : Version 2
    Format profile                 : Main@Main
    Format settings, BVOP          : No
    Format settings, Matrix        : Custom
    Format settings, GOP           : Variable
    Duration                       : 4mn 14s
    Bit rate mode                  : Variable
    Bit rate                       : 8 000 Kbps
    Width                          : 720 pixels
    Height                         : 576 pixels
    Display aspect ratio           : 4:3
    Frame rate                     : 25.000 fps
    Standard                       : PAL
    Color space                    : YUV
    Chroma subsampling             : 4:2:0
    Bit depth                      : 8 bits
    Scan type                      : Interlaced
    Scan order                     : Bottom Field First
    Compression mode               : Lossy
    Bits/(Pixel*Frame)             : 0.772
    Time code of first frame       : 00:00:00:00
    Time code source               : Group of pictures header
    Stream size                    : 241 MiB (82%)
    
    Audio
    ID                             : 189 (0xBD)-160 (0xA0)
    Format                         : PCM
    Format settings, Endianness    : Big
    Format settings, Sign          : Signed
    Muxing mode                    : DVD-Video
    Duration                       : 4mn 14s
    Bit rate mode                  : Constant
    Bit rate                       : 1 536 Kbps
    Channel(s)                     : 2 channels
    Sampling rate                  : 48.0 KHz
    Bit depth                      : 16 bits
    Delay relative to video        : 2ms
    Stream size                    : 46.6 MiB (16%)
    Hidden Content:
    You must reply before you can see the hidden data contained here.
     
    seafiant, benedela and juan javier like this.
  2. Loading...


  3. marco25

    marco25 Well-Known Member

    Joined:
    Oct 5, 2016
    Messages:
    1,942
    Likes Received:
    1,344
    thanks
     
  4. rkgmade

    rkgmade Well-Known Member

    Joined:
    Sep 29, 2016
    Messages:
    2,923
    Likes Received:
    191
    thanks
     
  5. jasinto007

    jasinto007 Member

    Joined:
    Nov 24, 2018
    Messages:
    89
    Likes Received:
    0
    MUCHAS GRACIAS!
     
  6. Sr Griffin

    Sr Griffin Member

    Joined:
    Sep 4, 2018
    Messages:
    550
    Likes Received:
    8
    thanks!
     
  7. klodrik

    klodrik Well-Known Member

    Joined:
    May 29, 2017
    Messages:
    1,844
    Likes Received:
    105
    Thanks a lot
     
  8. juan javier

    juan javier Member

    Joined:
    Nov 7, 2018
    Messages:
    96
    Likes Received:
    1
  9. hammo91

    hammo91 Active Member

    Joined:
    Apr 7, 2019
    Messages:
    383
    Likes Received:
    30
    Thanks.
     
  10. yanjamacaru

    yanjamacaru Well-Known Member

    Joined:
    Dec 21, 2018
    Messages:
    2,399
    Likes Received:
    81
    thanks
     
  11. Artik

    Artik Member

    Joined:
    Apr 16, 2018
    Messages:
    838
    Likes Received:
    14
    thanks
     
  12. Thiago Venceslau

    Thiago Venceslau James

    Joined:
    Aug 5, 2019
    Messages:
    221
    Likes Received:
    6
    hhhhhhhhhh
     
  13. BTMBrown66

    BTMBrown66 Active Member

    Joined:
    Dec 17, 2018
    Messages:
    555
    Likes Received:
    26
  14. benedela

    benedela Active Member

    Joined:
    Mar 29, 2019
    Messages:
    661
    Likes Received:
    31
    THAAAAAAAAAAAAAAAAAAAAAAAAAAAANKS
     
  15. seafiant

    seafiant New Member

    Joined:
    Oct 15, 2019
    Messages:
    18
    Likes Received:
    1
  16. greentokes

    greentokes Member

    Joined:
    Sep 28, 2019
    Messages:
    147
    Likes Received:
    7