Sara Bareilles - King of Anything (1080i) HDTV DD5.1 MPEG2-TrollHD

Discussion in 'MUSIC CHOICE' started by Ransel, Oct 30, 2013.

  1. Ransel

    Ransel Founder Staff Member AdMiN Uploader

    Joined:
    Oct 1, 2013
    Messages:
    1,342
    Likes Received:
    20,111
    [​IMG]

    Code:
          Complete name : (Music Video) Sara Bareilles - King of Anything 1080i HDTV DD5.1 MPEG2-TrollHD.ts
          Format : MPEG-TS
          File size : 444 MiB
          Duration : 3mn 23s
          Overall bit rate mode : Variable
          Overall bit rate : 18.3 Mbps
      Video #570
          ID : 570 (0x23A)
          Menu ID : 1 (0x1)
          Format : MPEG Video
          Format version : Version 2
          Format profile : Main@High
          Format settings, BVOP : Yes
          Format settings, Matrix : Custom
          Format settings, GOP : M=3, N=15
          Codec ID : 2
          Duration : 3mn 23s
          Bit rate mode : Variable
          Bit rate : 17.0 Mbps
          Maximum bit rate : 80.0 Mbps
          Width : 1 920 pixels
          Height : 1 080 pixels
          Display aspect ratio : 16:9
          Frame rate : 29.970 fps
          Color space : YUV
          Chroma subsampling : 4:2:0
          Bit depth : 8 bits
          Scan type : Interlaced
          Scan order : Top Field First
          Compression mode : Lossy
          Bits/(Pixel*Frame) : 0.274
          Time code of first frame : 00:00:00;00
          Time code source : Group of pictures header
          Stream size : 412 MiB (93%)
      Audio #569
          ID : 569 (0x239)
          Menu ID : 1 (0x1)
          Format : AC-3
          Format/Info : Audio Coding 3
          Mode extension : CM (complete main)
          Format settings, Endianness : Big
          Codec ID : 129
          Duration : 3mn 23s
          Bit rate mode : Constant
          Bit rate : 384 Kbps
          Channel(s) : 6 channels
          Channel positions : Front: L C R, Side: L R, LFE
          Sampling rate : 48.0 KHz
          Bit depth : 16 bits
          Compression mode : Lossy
          Stream size : 9.29 MiB (2%)
          Language : English
      Text #570-CC1
          ID : 570 (0x23A)-CC1
          Menu ID : 1 (0x1)
          Format : EIA-608
          Muxing mode : A/53 / DTVCC Transport
          Muxing mode, more info : Muxed in Video #1
          Duration : 3mn 23s
          Bit rate mode : Constant
          Stream size : 0.00 Byte (0%)
      Text #570-1
          ID : 570 (0x23A)-1
          Menu ID : 1 (0x1)
          Format : EIA-708
          Muxing mode : A/53 / DTVCC Transport
          Muxing mode, more info : Muxed in Video #1
          Duration : 3mn 23s
          Bit rate mode : Constant
          Stream size : 0.00 Byte (0%)


    Download:
    Hidden Content:
    You must either reply or click 'Like' to see the hidden information contained here.


    Password: sharemania.net


    Capper: TrollHD
     
    Snorom6, fatane, Flaxdevil and 5 others like this.
  2. slill

    slill Active Member

    Joined:
    Jul 25, 2014
    Messages:
    1,189
    Likes Received:
    20
    thanks for sharing
     
  3. santa321

    santa321 Well-Known Member

    Joined:
    Dec 7, 2013
    Messages:
    1,916
    Likes Received:
    87
    thanks
     
  4. falk

    falk Active Member

    Joined:
    Apr 9, 2014
    Messages:
    294
    Likes Received:
    37
    Many Thanks!
     
  5. lyana94

    lyana94 Well-Known Member

    Joined:
    Jul 5, 2017
    Messages:
    1,671
    Likes Received:
    62
    thanks
    thanks
     
  6. falk

    falk Active Member

    Joined:
    Apr 9, 2014
    Messages:
    294
    Likes Received:
    37
    Many Thanks!