Sam Smith - Like I Can (REVOLTHD) 1080i H.264 DD2.0-HDMania

Discussion in 'REVOLT' started by RGF72K, Jan 27, 2015.

  1. RGF72K

    RGF72K ????? Staff Member Super Moderator

    Joined:
    Oct 1, 2013
    Messages:
    1,020
    Likes Received:
    14,139
    [​IMG] [​IMG] [​IMG] [​IMG] [​IMG] [​IMG] [​IMG] [​IMG] [​IMG]

    General
    ID : 1 (0x1)
    Complete name : Sam Smith - Like I Can (REVOLTHD) 1080i H.264 DD2.0-HDMania.ts
    Format : MPEG-TS
    File size : 280 MiB
    Duration : 2mn 44s
    Overall bit rate mode : Variable
    Overall bit rate : 14.3 Mbps

    Video
    ID : 4113 (0x1011)
    Menu ID : 1 (0x1)
    Format : AVC
    Format/Info : Advanced Video Codec
    Format profile : [email protected]
    Format settings, CABAC : Yes
    Format settings, ReFrames : 4 frames
    Format settings, GOP : M=4, N=32
    Codec ID : 27
    Duration : 2mn 44s
    Bit rate mode : Variable
    Bit rate : 13.2 Mbps
    Maximum bit rate : 20.0 Mbps
    Width : 1 920 pixels
    Height : 1 080 pixels
    Display aspect ratio : 16:9
    Frame rate : 29.970 fps
    Color space : YUV
    Chroma subsampling : 4:2:0
    Bit depth : 8 bits
    Scan type : Interlaced
    Scan order : Top Field First
    Bits/(Pixel*Frame) : 0.212
    Stream size : 259 MiB (92%)
    Color primaries : BT.709
    Transfer characteristics : BT.709
    Matrix coefficients : BT.709
    Color range : Limited

    Audio
    ID : 4352 (0x1100)
    Menu ID : 1 (0x1)
    Format : AC-3
    Format/Info : Audio Coding 3
    Mode extension : CM (complete main)
    Format settings, Endianness : Big
    Codec ID : 129
    Duration : 2mn 44s
    Bit rate mode : Constant
    Bit rate : 384 Kbps
    Channel(s) : 2 channels
    Channel positions : Front: L R
    Sampling rate : 48.0 KHz
    Bit depth : 16 bits
    Compression mode : Lossy
    Stream size : 7.54 MiB (3%)
    Language : English

    Download:
    Hidden Content:
    You must either reply or click 'Like' to see the hidden information contained here.

    Capped by Me :victory:
     
    Dreamer, Vinny, rhea and 1 other person like this.
  2. Loading...


  3. Zatimi

    Zatimi Active Member

    Joined:
    Aug 27, 2014
    Messages:
    598
    Likes Received:
    61
    Thanks so much
     
  4. rhea

    rhea Well-Known Member

    Joined:
    Jan 6, 2014
    Messages:
    5,280
    Likes Received:
    253
    thank you so much
     
  5. Zatimi

    Zatimi Active Member

    Joined:
    Aug 27, 2014
    Messages:
    598
    Likes Received:
    61
    thanks so much