Sam Smith - I'm Not The Only One (REVOLTHD) 1080i H.264 DD2.0-HDMania

Discussion in 'REVOLT' started by RGF72K, Jan 21, 2015.

  1. RGF72K

    RGF72K ????? Staff Member Super Moderator

    Joined:
    Oct 1, 2013
    Messages:
    1,020
    Likes Received:
    13,819
    [​IMG] [​IMG] [​IMG] [​IMG] [​IMG] [​IMG] [​IMG] [​IMG] [​IMG]

    General
    ID : 0 (0x0)
    Complete name : Sam Smith - I'm Not The Only One (REVOLTHD) 1080i H.264 DD2.0-HDMania.TS
    Format : MPEG-TS
    File size : 474 MiB
    Duration : 4mn 37s
    Overall bit rate mode : Variable
    Overall bit rate : 14.3 Mbps
    Maximum Overall bit rate : 18.0 Mbps

    Video
    ID : 4113 (0x1011)
    Menu ID : 1 (0x1)
    Format : AVC
    Format/Info : Advanced Video Codec
    Format profile : [email protected]
    Format settings, CABAC : Yes
    Format settings, ReFrames : 4 frames
    Format settings, GOP : M=4, N=32
    Codec ID : 27
    Duration : 4mn 38s
    Bit rate mode : Variable
    Bit rate : 13.2 Mbps
    Maximum bit rate : 20.0 Mbps
    Width : 1 920 pixels
    Height : 1 080 pixels
    Display aspect ratio : 16:9
    Frame rate : 29.970 fps
    Color space : YUV
    Chroma subsampling : 4:2:0
    Bit depth : 8 bits
    Scan type : Interlaced
    Scan order : Top Field First
    Bits/(Pixel*Frame) : 0.212
    Stream size : 437 MiB (92%)
    Color primaries : BT.709
    Transfer characteristics : BT.709
    Matrix coefficients : BT.709
    Color range : Limited

    Audio
    ID : 4352 (0x1100)
    Menu ID : 1 (0x1)
    Format : AC-3
    Format/Info : Audio Coding 3
    Mode extension : CM (complete main)
    Format settings, Endianness : Big
    Codec ID : 129
    Duration : 4mn 38s
    Bit rate mode : Constant
    Bit rate : 384 Kbps
    Channel(s) : 2 channels
    Channel positions : Front: L R
    Sampling rate : 48.0 KHz
    Bit depth : 16 bits
    Compression mode : Lossy
    Delay relative to video : -4ms
    Stream size : 12.7 MiB (3%)

    Download:
    Hidden Content:
    You must either reply or click 'Like' to see the hidden information contained here.

    Capped by Me :victory:
     
  2. Loading...


  3. Crusha

    Crusha Well-Known Member Capper

    Joined:
    Oct 15, 2014
    Messages:
    2,349
    Likes Received:
    2,062
    thank you very much :)
     
  4. Joseph

    Joseph Active Member

    Joined:
    Dec 10, 2013
    Messages:
    726
    Likes Received:
    143
    thank you! :D
     
  5. Dreamer

    Dreamer ♫ It's Britney Bitch ♫ Capper Uploader

    Joined:
    Dec 4, 2014
    Messages:
    2,128
    Likes Received:
    1,782
    Thank you
     
  6. rhea

    rhea Well-Known Member

    Joined:
    Jan 6, 2014
    Messages:
    5,193
    Likes Received:
    250
    thank you so much!
     
  7. giampiero

    giampiero Member

    Joined:
    Sep 13, 2014
    Messages:
    42
    Likes Received:
    0
    thank you
     
  8. Binh

    Binh Member

    Joined:
    Nov 18, 2013
    Messages:
    86
    Likes Received:
    1
    thank you
     
  9. HDMjuzik

    HDMjuzik Member

    Joined:
    Feb 4, 2015
    Messages:
    59
    Likes Received:
    2
    thank you very much
     
  10. alvin

    alvin Member

    Joined:
    May 11, 2014
    Messages:
    197
    Likes Received:
    11
     
  11. Regis

    Regis Member

    Joined:
    Jul 14, 2015
    Messages:
    954
    Likes Received:
    23
    thank you very much
     
  12. zemino

    zemino Member

    Joined:
    Apr 26, 2014
    Messages:
    113
    Likes Received:
    1
    many ethanks
     
  13. Pavulon

    Pavulon Member

    Joined:
    Mar 22, 2016
    Messages:
    925
    Likes Received:
    10
    thanks