FEED Sabrina Salerno - Boys (Summertime Love),Festival di Sanremo 2020,8 feb(FEED-1080i-MPA2.0-@rt-v-k)-H

Discussion in 'HD Live Performances' started by art-v-k, Feb 13, 2020.

  1. art-v-k

    art-v-k Well-Known Member Capper V . I . P. Uploader

    Joined:
    Nov 1, 2013
    Messages:
    366
    Likes Received:
    19,055
    Sabrina Salerno - Boys (Summertime Love),Festival di Sanremo 2020,8 feb(FEED-1080i-MPA2.0-@rt-v-k)-HDMania

    [​IMG] [​IMG] [​IMG]

    [​IMG] [​IMG] [​IMG]

    Format : MPEG-TS
    File size : 778 MiB
    Duration : 3 min 40 s
    Overall bit rate mode : Variable
    Overall bit rate : 29.6 Mb/s

    Video
    ID : 512 (0x200)
    Menu ID : 1 (0x1)
    Format : AVC
    Format/Info : Advanced Video Codec
    Format profile : Main@L4.1
    Format settings : 2 Ref Frames
    Format settings, CABAC : No
    Format settings, Reference frames : 2 frames
    Format settings, GOP : M=3, N=12
    Codec ID : 27
    Duration : 3 min 40 s
    Bit rate mode : Constant
    Bit rate : 25.8 Mb/s
    Width : 1 920 pixels
    Height : 1 080 pixels
    Display aspect ratio : 16:9
    Frame rate : 25.000 FPS
    Color space : YUV
    Chroma subsampling : 4:2:0
    Bit depth : 8 bits
    Scan type : Interlaced
    Scan type, store method : Separated fields
    Scan order : Top Field First
    Bits/(Pixel*Frame) : 0.497
    Stream size : 658 MiB (85%)
    Color range : Limited
    Color primaries : BT.709
    Transfer characteristics : BT.709
    Matrix coefficients : BT.709

    Audio #1
    ID : 4111 (0x100F)
    Menu ID : 1 (0x1)
    Format : MPEG Audio
    Format version : Version 1
    Format profile : Layer 2
    Codec ID : 3
    Duration : 3 min 40 s
    Bit rate mode : Constant
    Bit rate : 256 kb/s
    Channel(s) : 2 channels
    Sampling rate : 48.0 kHz
    Frame rate : 41.667 FPS (1152 SPF)
    Compression mode : Lossy
    Delay relative to video : 86 ms
    Stream size : 6.72 MiB (1%)
    Language : English

    Audio #2
    ID : 4112 (0x1010)
    Menu ID : 1 (0x1)
    Format : MPEG Audio
    Format version : Version 1
    Format profile : Layer 2
    Codec ID : 3
    Duration : 3 min 40 s
    Bit rate mode : Constant
    Bit rate : 256 kb/s
    Channel(s) : 2 channels
    Sampling rate : 48.0 kHz
    Frame rate : 41.667 FPS (1152 SPF)
    Compression mode : Lossy
    Delay relative to video : 94 ms
    Stream size : 6.72 MiB (1%)
    Language : Spanish

    Audio #3
    ID : 4113 (0x1011)
    Menu ID : 1 (0x1)
    Format : PCM
    Format settings : Little
    Muxing mode : SMPTE ST 302
    Codec ID : 6
    Duration : 3 min 40 s
    Bit rate mode : Constant
    Bit rate : 1 920 kb/s
    Encoded bit rate : 2 304 kb/s
    Channel(s) : 2 channels
    Sampling rate : 48.0 kHz
    Bit depth : 20 bits
    Delay relative to video : 20 ms
    Stream size : 50.4 MiB (6%)
    Language : German

    Audio #4
    ID : 4114 (0x1012)
    Menu ID : 1 (0x1)
    Format : MPEG Audio
    Format version : Version 1
    Format profile : Layer 2
    Codec ID : 3
    Duration : 3 min 40 s
    Bit rate mode : Constant
    Bit rate : 256 kb/s
    Channel(s) : 2 channels
    Sampling rate : 48.0 kHz
    Frame rate : 41.667 FPS (1152 SPF)
    Compression mode : Lossy
    Delay relative to video : 8 ms
    Stream size : 6.72 MiB (1%)
    Language : French

    Menu
    ID : 257 (0x101)
    Menu ID : 1 (0x1)
    Duration : 3 min 40 s
    List : 512 (0x200) (AVC) / 4111 (0x100F) (MPEG Audio, English) / 4112 (0x1010) (MPEG Audio, Spanish) / 4113 (0x1011) (PCM, German) / 4114 (0x1012) (MPEG Audio, French)
    Language : / English / Spanish / German / French
    Maximum bit rate : 3392800

    ~~~~~~~~~~~~~~~~~~~~~~~~

    Hidden Content:
    You must either reply or click 'Like' to see the hidden information contained here.
     
    larryxd, pinky2, Vinny and 22 others like this.
  2. Loading...


  3. CELOBRAZiL

    CELOBRAZiL Well-Known Member Capper V . I . P. Donor

    Joined:
    Oct 2, 2013
    Messages:
    8,155
    Likes Received:
    28,658
    Thanks my friend! :)
     
  4. edgar

    edgar Well-Known Member

    Joined:
    Oct 12, 2013
    Messages:
    2,703
    Likes Received:
    2,757
    Thank you so much
    Hi art-v-k
    you will have the presentation of Dua Lipa at the Festival di Sanremo
     
  5. manhunter

    manhunter Active Member

    Joined:
    Jun 8, 2016
    Messages:
    570
    Likes Received:
    65
    THANK YOU!!!
     
  6. lalololo

    lalololo Member

    Joined:
    Feb 18, 2014
    Messages:
    338
    Likes Received:
    10
    SABRINA!!!!!!!!!!!!!!!!!!!!!!!!!!!!!!!
     
  7. dgnio

    dgnio Well-Known Member Capper Uploader

    Joined:
    Jul 7, 2014
    Messages:
    2,131
    Likes Received:
    735
    thank you very much!
     
  8. multimediafm

    multimediafm Well-Known Member Donor

    Joined:
    Mar 27, 2014
    Messages:
    15,994
    Likes Received:
    1,475
  9. stel883

    stel883 Active Member

    Joined:
    Jan 27, 2018
    Messages:
    544
    Likes Received:
    162
    thanks, for sharing!!
     
  10. Dj samzo

    Dj samzo Well-Known Member

    Joined:
    Sep 27, 2017
    Messages:
    1,123
    Likes Received:
    88
    thank you
     
  11. viperscan

    viperscan Active Member

    Joined:
    Jun 3, 2016
    Messages:
    497
    Likes Received:
    34
    Thank you
     
  12. mmg1818

    mmg1818 Mabel, Ava Max.

    Joined:
    Dec 24, 2013
    Messages:
    814
    Likes Received:
    2,723
    thanks for FEED.
     
  13. disclosure

    disclosure Member

    Joined:
    Nov 2, 2017
    Messages:
    237
    Likes Received:
    10
    80's back
     
  14. Biszczan

    Biszczan Member Donor

    Joined:
    May 14, 2017
    Messages:
    302
    Likes Received:
    12
  15. ManuelLopez5

    ManuelLopez5 Active Member

    Joined:
    Jun 7, 2014
    Messages:
    703
    Likes Received:
    41
    thank you :p
     
  16. eusebitoo

    eusebitoo Active Member

    Joined:
    Feb 22, 2015
    Messages:
    669
    Likes Received:
    93
    excelente muchas gracias
     
  17. Pavulon

    Pavulon Well-Known Member Donor

    Joined:
    Mar 22, 2016
    Messages:
    4,790
    Likes Received:
    1,313
    thank you:cool:
     
  18. Wimpy2

    Wimpy2 Active Member

    Joined:
    Jan 21, 2014
    Messages:
    921
    Likes Received:
    56
  19. rhea

    rhea Well-Known Member

    Joined:
    Jan 6, 2014
    Messages:
    10,318
    Likes Received:
    1,849
    thank you so much
     
  20. graboluswielki

    graboluswielki Member

    Joined:
    Dec 19, 2015
    Messages:
    146
    Likes Received:
    7
  21. Kiwi Man

    Kiwi Man Active Member

    Joined:
    Feb 15, 2017
    Messages:
    680
    Likes Received:
    82
    I don't know her, but she looks fierce! Thanks!