Sabrina Carpenter - Eyes Wide Open (DISNEYHD-1080i-AAC2.0-Dfrazzer)-HDMania

Discussion in 'DISNEY HD' started by Dfrazzer, Aug 3, 2015.

  1. Dfrazzer

    Dfrazzer Super Moderator Staff Member Super Moderator Capper V . I . P. Donor

    Joined:
    Nov 4, 2013
    Messages:
    6,103
    Likes Received:
    16,255
    [​IMG] [​IMG] [​IMG] [​IMG] [​IMG] [​IMG] [​IMG] [​IMG]

    Code:
    General
    ID : 1 (0x1)
    Complete name : D:\Sharemania Torrents\Sabrina Carpenter - Eyes Wide Open (DISNEYHD-1080i-AAC2.0-Dfrazzer)-HDMania.ts
    Format : MPEG-TS
    File size : 321 MiB
    Duration : 3mn 28s
    Overall bit rate mode : Variable
    Overall bit rate : 12.9 Mbps
    
    Video
    ID : 100 (0x64)
    Menu ID : 2 (0x2)
    Format : AVC
    Format/Info : Advanced Video Codec
    Format profile : High@L4.0
    Format settings, CABAC : Yes
    Format settings, ReFrames : 2 frames
    Codec ID : 27
    Duration : 3mn 28s
    Bit rate mode : Variable
    Bit rate : 12.1 Mbps
    Maximum bit rate : 24.0 Mbps
    Width : 1 920 pixels
    Height : 1 080 pixels
    Display aspect ratio : 16:9
    Frame rate : 25.000 fps
    Color space : YUV
    Chroma subsampling : 4:2:0
    Bit depth : 8 bits
    Scan type : Interlaced
    Scan order : Top Field First
    Bits/(Pixel*Frame) : 0.233
    Stream size : 300 MiB (93%)
    Color primaries : BT.709
    Transfer characteristics : BT.709
    Matrix coefficients : BT.709
    
    Audio
    ID : 101 (0x65)
    Menu ID : 2 (0x2)
    Format : AAC
    Format/Info : Advanced Audio Codec
    Format version : Version 4
    Format profile : LC
    Muxing mode : ADTS
    Codec ID : 15
    Duration : 3mn 28s
    Bit rate mode : Variable
    Bit rate : 221 Kbps
    Channel(s) : 2 channels
    Channel positions : Front: L R
    Sampling rate : 48.0 KHz
    Compression mode : Lossy
    Stream size : 5.50 MiB (2%)
    
    Hidden Content:
    You must reply before you can see the hidden data contained here.
    Capped by me.
     
    Last edited: Oct 28, 2017
  2. Loading...


  3. rhea

    rhea Well-Known Member

    Joined:
    Jan 6, 2014
    Messages:
    10,207
    Likes Received:
    1,829
    thank you so much :)
     
  4. santa321

    santa321 Well-Known Member

    Joined:
    Dec 7, 2013
    Messages:
    1,983
    Likes Received:
    95
    thank you
     
  5. hungquocphan

    hungquocphan Active Member

    Joined:
    Nov 1, 2013
    Messages:
    860
    Likes Received:
    38
    thanks i love it
     
  6. Valentina

    Valentina Member

    Joined:
    Oct 25, 2013
    Messages:
    534
    Likes Received:
    15
    thank you!
     
  7. tf135

    tf135 Well-Known Member

    Joined:
    Nov 14, 2014
    Messages:
    4,509
    Likes Received:
    250
    thank you
     
  8. johymbim

    johymbim Member

    Joined:
    Jul 30, 2014
    Messages:
    659
    Likes Received:
    21
    thank you
     
  9. Trop1cal

    Trop1cal Member

    Joined:
    Feb 5, 2015
    Messages:
    822
    Likes Received:
    19
    Thank you very much.
     
  10. Crusha

    Crusha Well-Known Member Capper V . I . P.

    Joined:
    Oct 15, 2014
    Messages:
    2,499
    Likes Received:
    3,635
    thank you
     
  11. lucky_jess

    lucky_jess Member

    Joined:
    Nov 28, 2015
    Messages:
    888
    Likes Received:
    24
    good video, thank you
     
  12. Darkangel

    Darkangel Super Moderator Staff Member Super Moderator Capper V . I . P.

    Joined:
    Oct 7, 2013
    Messages:
    2,843
    Likes Received:
    27,734
    nice video thanks so much :)
     
  13. ancor

    ancor Member

    Joined:
    Dec 28, 2014
    Messages:
    137
    Likes Received:
    1
    Thank you.
     
  14. nocturn999

    nocturn999 Member

    Joined:
    Jul 17, 2014
    Messages:
    93
    Likes Received:
    4
    Thanks!!!!!
     
  15. alanlighter

    alanlighter Member

    Joined:
    Aug 29, 2016
    Messages:
    378
    Likes Received:
    20
    thanks
     
  16. FanofTheStars

    FanofTheStars Well-Known Member

    Joined:
    Feb 11, 2017
    Messages:
    4,188
    Likes Received:
    762
    Just what I needed. Thank you.
     
  17. JJ6851985

    JJ6851985 Member

    Joined:
    May 3, 2017
    Messages:
    607
    Likes Received:
    11
    thank you
     
  18. ConfusedBeard

    ConfusedBeard Active Member

    Joined:
    May 30, 2017
    Messages:
    112
    Likes Received:
    127
  19. Dfrazzer

    Dfrazzer Super Moderator Staff Member Super Moderator Capper V . I . P. Donor

    Joined:
    Nov 4, 2013
    Messages:
    6,103
    Likes Received:
    16,255
    I just added a better version.
     
  20. celio

    celio Active Member

    Joined:
    Oct 29, 2013
    Messages:
    999
    Likes Received:
    19
    cool cool
     
  21. maxkeiser

    maxkeiser Well-Known Member Uploader

    Joined:
    Aug 24, 2016
    Messages:
    7,863
    Likes Received:
    20,204
    wahts taht