S Club 8 - Automatic High (Clean)

Discussion in 'SD' started by Rubn4, Jan 10, 2019.

  1. Rubn4

    Rubn4 Active Member

    Joined:
    Oct 30, 2016
    Messages:
    195
    Likes Received:
    29
    [​IMG]


    Code:
    General
    Complete name                  : D:\UltraStar Proyect\S Club\Automatic High.vob
    Format                         : MPEG-PS
    File size                      : 135 MiB
    Duration                       : 3mn 23s
    Overall bit rate mode          : Variable
    Overall bit rate               : 5 579 Kbps
    
    Video
    ID                             : 224 (0xE0)
    Format                         : MPEG Video
    Format version                 : Version 2
    Format profile                 : Main@Main
    Format settings, BVOP          : Yes
    Format settings, Matrix        : Custom
    Duration                       : 3mn 23s
    Bit rate mode                  : Variable
    Bit rate                       : 5 020 Kbps
    Maximum bit rate               : 6 000 Kbps
    Width                          : 720 pixels
    Height                         : 576 pixels
    Display aspect ratio           : 4:3
    Frame rate                     : 25.000 fps
    Standard                       : PAL
    Color space                    : YUV
    Chroma subsampling             : 4:2:0
    Bit depth                      : 8 bits
    Scan type                      : Interlaced
    Scan order                     : Top Field First
    Compression mode               : Lossy
    Bits/(Pixel*Frame)             : 0.484
    Stream size                    : 122 MiB (90%)
    
    Audio
    ID                             : 189 (0xBD)-128 (0x80)
    Format                         : AC-3
    Format/Info                    : Audio Coding 3
    Mode extension                 : CM (complete main)
    Format settings, Endianness    : Big
    Muxing mode                    : DVD-Video
    Duration                       : 3mn 23s
    Bit rate mode                  : Constant
    Bit rate                       : 448 Kbps
    Channel(s)                     : 2 channels
    Channel positions              : Front: L R
    Sampling rate                  : 48.0 KHz
    Bit depth                      : 16 bits
    Compression mode               : Lossy
    Delay relative to video        : -360ms
    Stream size                    : 10.9 MiB (8%)

    Hidden Content:
    You must reply before you can see the hidden data contained here.
     
    tf135 likes this.
  2. Loading...


  3. tf135

    tf135 Well-Known Member

    Joined:
    Nov 14, 2014
    Messages:
    3,692
    Likes Received:
    211
    thanks