DVD S Club 7 - Bring It All Back (Clean)

Discussion in 'SD' started by Rubn4, Jan 10, 2019.

  1. Rubn4

    Rubn4 Well-Known Member

    Joined:
    Oct 30, 2016
    Messages:
    870
    Likes Received:
    413
    [​IMG]


    Code:
    General
    Complete name                            : D:\UltraStar Proyect\S Club\Bring It All Back.vob
    Format                                   : MPEG-PS
    File size                                : 198 MiB
    Duration                                 : 3mn 27s
    Overall bit rate mode                    : Variable
    Overall bit rate                         : 7 985 Kbps
    
    Video
    ID                                       : 224 (0xE0)
    Format                                   : MPEG Video
    Format version                           : Version 2
    Format profile                           : Main@Main
    Format settings, BVOP                    : Yes
    Format settings, Matrix                  : Custom
    Format settings, GOP                     : M=3, N=12
    Duration                                 : 3mn 27s
    Bit rate mode                            : Variable
    Bit rate                                 : 7 634 Kbps
    Maximum bit rate                         : 9 000 Kbps
    Width                                    : 720 pixels
    Height                                   : 576 pixels
    Display aspect ratio                     : 2.40:1
    Frame rate                               : 25.000 fps
    Standard                                 : PAL
    Color space                              : YUV
    Chroma subsampling                       : 4:2:0
    Bit depth                                : 8 bits
    Scan type                                : Interlaced
    Scan order                               : Top Field First
    Compression mode                         : Lossy
    Bits/(Pixel*Frame)                       : 0.736
    Stream size                              : 189 MiB (96%)
    
    Audio
    ID                                       : 189 (0xBD)-128 (0x80)
    Format                                   : AC-3
    Format/Info                              : Audio Coding 3
    Mode extension                           : CM (complete main)
    Format settings, Endianness              : Big
    Muxing mode                              : DVD-Video
    Duration                                 : 3mn 27s
    Bit rate mode                            : Constant
    Bit rate                                 : 192 Kbps
    Channel(s)                               : 2 channels
    Channel positions                        : Front: L R
    Sampling rate                            : 48.0 KHz
    Bit depth                                : 16 bits
    Compression mode                         : Lossy
    Stream size                              : 4.75 MiB (2%)

    Hidden Content:
    You must reply before you can see the hidden data contained here.
     
    tf135 likes this.
  2. Loading...


  3. marco25

    marco25 Well-Known Member

    Joined:
    Oct 5, 2016
    Messages:
    1,781
    Likes Received:
    1,112
    thanks
     
  4. tf135

    tf135 Well-Known Member

    Joined:
    Nov 14, 2014
    Messages:
    4,177
    Likes Received:
    225
    thanks
     
  5. Sergiodegros

    Sergiodegros Well-Known Member

    Joined:
    Mar 21, 2017
    Messages:
    1,158
    Likes Received:
    60
  6. logrono

    logrono Well-Known Member V . I . P.

    Joined:
    Mar 8, 2017
    Messages:
    2,369
    Likes Received:
    3,149
    Good post buddy
     
  7. johnnyzarate

    johnnyzarate Active Member

    Joined:
    Dec 26, 2018
    Messages:
    1,026
    Likes Received:
    23
  8. kyros

    kyros Active Member

    Joined:
    Oct 21, 2015
    Messages:
    830
    Likes Received:
    40
    thanks
     
  9. shing000

    shing000 Well-Known Member

    Joined:
    Mar 13, 2016
    Messages:
    1,776
    Likes Received:
    165
    thanks
     
  10. pajpajpaj

    pajpajpaj Well-Known Member

    Joined:
    Feb 11, 2017
    Messages:
    1,776
    Likes Received:
    36
    thank you
     
  11. iviajd

    iviajd Member

    Joined:
    Jun 21, 2018
    Messages:
    78
    Likes Received:
    2
    brilliante