HDTV SóTocaTop Verão [Mar-21-2020] GLOBOHD 1080i HDTV DD5.1 H.264 CELOBRAZiL-HDMania

Discussion in 'HD Live Performances' started by CELOBRAZiL, Mar 21, 2020.

  1. CELOBRAZiL

    CELOBRAZiL Well-Known Member Capper V . I . P. Donor

    Joined:
    Oct 2, 2013
    Messages:
    8,636
    Likes Received:
    30,858
    SóTocaTop Verão [Mar-21-2020] GLOBOHD 1080i HDTV DD5.1 H.264 CELOBRAZiL-HDMania

    [​IMG]



    Format : MPEG-TS
    File size : 4.01 GiB
    Duration : 38 min 36 s
    Overall bit rate mode : Variable
    Overall bit rate : 14.9 Mb/s

    Video
    ID : 273 (0x111)
    Menu ID : 257 (0x101)
    Format : AVC
    Format/Info : Advanced Video Codec
    Format profile : High@L4
    Format settings : CABAC / 2 Ref Frames
    Format settings, CABAC : Yes
    Format settings, Reference frames : 2 frames
    Codec ID : 27
    Duration : 38 min 36 s
    Bit rate mode : Variable
    Bit rate : 13.5 Mb/s
    Maximum bit rate : 24.0 Mb/s
    Width : 1 920 pixels
    Height : 1 080 pixels
    Display aspect ratio : 16:9
    Frame rate : 29.970 (30000/1001) FPS
    Color space : YUV
    Chroma subsampling : 4:2:0
    Bit depth : 8 bits
    Scan type : Interlaced
    Scan type, store method : Separated fields
    Scan order : Top Field First
    Bits/(Pixel*Frame) : 0.217
    Stream size : 3.63 GiB (91%)
    Color range : Limited
    Color primaries : BT.709
    Transfer characteristics : BT.709
    Matrix coefficients : BT.709

    Audio
    ID : 277 (0x115)
    Menu ID : 257 (0x101)
    Format : AC-3
    Format/Info : Audio Coding 3
    Commercial name : Dolby Digital
    Codec ID : 129
    Duration : 38 min 36 s
    Bit rate mode : Constant
    Bit rate : 640 kb/s
    Channel(s) : 6 channels
    Channel layout : L R C LFE Ls Rs
    Sampling rate : 48.0 kHz
    Frame rate : 31.250 FPS (1536 SPF)
    Compression mode : Lossy
    Stream size : 177 MiB (4%)
    Language : English
    Service kind : Complete Main


    :: Artists ::

    Naiara Azevedo
    Falamansa
    Atitude 67
    Marcos & Belutti


    Link(s):
    Hidden Content:
    You must either reply or click 'Like' to see the hidden information contained here.
     
    abcdefg likes this.
  2. Loading...


  3. CELOBRAZiL

    CELOBRAZiL Well-Known Member Capper V . I . P. Donor

    Joined:
    Oct 2, 2013
    Messages:
    8,636
    Likes Received:
    30,858
    :love::love::love:

    Added GOOGLE DRIVE link + MIRRORs! :)
     
  4. Fabio Barbosa

    Fabio Barbosa Well-Known Member

    Joined:
    Sep 28, 2015
    Messages:
    934
    Likes Received:
    386
    thanks
     
    CELOBRAZiL likes this.
  5. Jenkins

    Jenkins Well-Known Member

    Joined:
    May 30, 2019
    Messages:
    24,612
    Likes Received:
    640
    THANKS
     
    CELOBRAZiL likes this.