Ruth B - Lost Boy (VH1.HD.1080i.DD5.1).-Crusha

Discussion in 'VH1 HD' started by Crusha, May 27, 2016.

  1. Crusha

    Crusha Well-Known Member Capper

    Joined:
    Oct 15, 2014
    Messages:
    2,350
    Likes Received:
    2,136
    [​IMG] [​IMG] [​IMG] [​IMG] [​IMG]

    Mediainfo
    Code:
    General
    ID                             : 1 (0x1)
    Complete name                  : Ruth B - Lost Boy (VH1.HD.1080i.DD5.1).-Crusha.ts
    Format                         : MPEG-TS
    File size                      : 89.8 MiB
    Duration                       : 4mn 12s
    Overall bit rate mode          : Variable
    Overall bit rate               : 2 987 Kbps
    
    Video
    ID                             : 2943 (0xB7F)
    Menu ID                        : 1515 (0x5EB)
    Format                         : AVC
    Format/Info                    : Advanced Video Codec
    Format profile                 : [email protected]
    Format settings, CABAC         : Yes
    Format settings, ReFrames      : 4 frames
    Codec ID                       : 27
    Duration                       : 4mn 12s
    Bit rate                       : 2 451 Kbps
    Width                          : 1 920 pixels
    Height                         : 1 080 pixels
    Display aspect ratio           : 16:9
    Frame rate                     : 29.970 fps
    Standard                       : Component
    Color space                    : YUV
    Chroma subsampling             : 4:2:0
    Bit depth                      : 8 bits
    Scan type                      : MBAFF
    Scan order                     : Top Field First
    Bits/(Pixel*Frame)             : 0.039
    Stream size                    : 73.7 MiB (82%)
    Color range                    : Limited
    Color primaries                : BT.709
    Transfer characteristics       : BT.709
    Matrix coefficients            : BT.709
    
    Audio
    ID                             : 3909 (0xF45)
    Menu ID                        : 1515 (0x5EB)
    Format                         : AC-3
    Format/Info                    : Audio Coding 3
    Mode extension                 : CM (complete main)
    Format settings, Endianness    : Big
    Codec ID                       : 6
    Duration                       : 4mn 12s
    Bit rate mode                  : Constant
    Bit rate                       : 384 Kbps
    Channel(s)                     : 6 channels
    Channel positions              : Front: L C R, Side: L R, LFE
    Sampling rate                  : 48.0 KHz
    Bit depth                      : 16 bits
    Compression mode               : Lossy
    Stream size                    : 11.5 MiB (13%)
    Language                       : English
    
    Hidden Content:
    You must reply before you can see the hidden data contained here.
    Password: crusha
     
    rhea likes this.
  2. Loading...


  3. rhea

    rhea Well-Known Member

    Joined:
    Jan 6, 2014
    Messages:
    5,266
    Likes Received:
    253
    thank you
     
  4. Zatimi

    Zatimi Active Member

    Joined:
    Aug 27, 2014
    Messages:
    598
    Likes Received:
    61
    thank you
     
  5. alpainsponge

    alpainsponge Member

    Joined:
    Sep 23, 2014
    Messages:
    33
    Likes Received:
    1
    thank you