DVD Royksopp and Robyn - The Girl and The Robot (MixMash) [VOB]

Discussion in 'SD' started by claudio1301, Oct 24, 2020.

  1. claudio1301

    claudio1301 Well-Known Member V . I . P.

    Joined:
    Oct 2, 2018
    Messages:
    1,488
    Likes Received:
    3,337
    [​IMG]
    Code:
    General
    Complete name                  : Royksopp and Robyn - The Girl and The Robot (MixMash).vob
    Format                         : MPEG-PS
    File size                      : 218 MiB
    Duration                       : 3 min 8 s
    Overall bit rate mode          : Constant
    Overall bit rate               : 9 700 kb/s
    
    Video
    ID                             : 224 (0xE0)
    Format                         : MPEG Video
    Format version                 : Version 2
    Format profile                 : Main@Main
    Format settings                : CustomMatrix / BVOP
    Format settings, BVOP          : Yes
    Format settings, Matrix        : Custom
    Format settings, GOP           : M=3, N=15
    Format settings, picture struc : Frame
    Duration                       : 3 min 8 s
    Bit rate mode                  : Constant
    Bit rate                       : 8 000 kb/s
    Width                          : 720 pixels
    Height                         : 576 pixels
    Display aspect ratio           : 4:3
    Frame rate                     : 25.000 FPS
    Standard                       : PAL
    Color space                    : YUV
    Chroma subsampling             : 4:2:0
    Bit depth                      : 8 bits
    Scan type                      : Interlaced
    Scan order                     : Top Field First
    Compression mode               : Lossy
    Bits/(Pixel*Frame)             : 0.772
    Time code of first frame       : 00:06:49:20
    Time code source               : Group of pictures header
    GOP, Open/Closed               : Open
    Stream size                    : 179 MiB (82%)
    
    Audio
    ID                             : 189 (0xBD)-160 (0xA0)
    Format                         : PCM
    Format settings                : Big / Signed
    Muxing mode                    : DVD-Video
    Duration                       : 3 min 8 s
    Bit rate mode                  : Constant
    Bit rate                       : 1 536 kb/s
    Channel(s)                     : 2 channels
    Sampling rate                  : 48.0 kHz
    Bit depth                      : 16 bits
    Delay relative to video        : -310 ms
    Stream size                    : 34.6 MiB (16%)
    
    Menu
    Host: Mediafire
    Hidden Content:
    You must reply before you can see the hidden data contained here.
     
  2. Loading...


  3. 3veronicas

    3veronicas Well-Known Member

    Joined:
    Aug 26, 2016
    Messages:
    5,047
    Likes Received:
    413
    Thanks!
     
  4. kuraudie

    kuraudie Active Member

    Joined:
    Dec 17, 2018
    Messages:
    347
    Likes Received:
    45
    tyyyyyyy
     
  5. Jesus Miguel Rivero

    Jesus Miguel Rivero Well-Known Member

    Joined:
    Jul 9, 2015
    Messages:
    3,112
    Likes Received:
    175
  6. Denishx

    Denishx Member

    Joined:
    Aug 4, 2014
    Messages:
    256
    Likes Received:
    3
    thank you