HDTV Rock Legends - Depeche Mode BISHD 1080i HDTV DD5.1 H.264 CELOBRAZiL-HDMania

Discussion in 'Documentaries' started by CELOBRAZiL, Jan 12, 2017.

  1. CELOBRAZiL

    CELOBRAZiL Well-Known Member Capper V . I . P. Donor

    Joined:
    Oct 2, 2013
    Messages:
    2,987
    Likes Received:
    8,526
    Rock Legends - Depeche Mode BISHD 1080i HDTV DD5.1 H.264 CELOBRAZiL-HDMania

    [​IMG]



    Format : MPEG-TS
    File size : 1.38 GiB
    Duration : 22mn 33s
    Overall bit rate mode : Variable
    Overall bit rate : 8 749 Kbps

    Video
    ID : 7472 (0x1D30)
    Menu ID : 620 (0x26C)
    Format : AVC
    Format/Info : Advanced Video Codec
    Format profile : [email protected]
    Format settings, CABAC : Yes
    Format settings, ReFrames : 4 frames
    Codec ID : 27
    Duration : 22mn 33s
    Bit rate : 7 670 Kbps
    Width : 1 920 pixels
    Height : 1 080 pixels
    Display aspect ratio : 16:9
    Frame rate : 29.970 fps
    Color space : YUV
    Chroma subsampling : 4:2:0
    Bit depth : 8 bits
    Scan type : MBAFF
    Scan order : Top Field First
    Bits/(Pixel*Frame) : 0.123
    Stream size : 1.21 GiB (88%)

    Audio #1
    ID : 7473 (0x1D31)
    Menu ID : 620 (0x26C)
    Format : MPEG Audio
    Format version : Version 1
    Format profile : Layer 2
    Codec ID : 3
    Duration : 22mn 33s
    Bit rate mode : Constant
    Bit rate : 256 Kbps
    Channel(s) : 2 channels
    Sampling rate : 48.0 KHz
    Compression mode : Lossy
    Stream size : 41.3 MiB (3%)
    Language : English

    Audio #2
    ID : 7474 (0x1D32)
    Menu ID : 620 (0x26C)
    Format : AC-3
    Format/Info : Audio Coding 3
    Mode extension : CM (complete main)
    Format settings, Endianness : Big
    Codec ID : 129
    Duration : 22mn 33s
    Bit rate mode : Constant
    Bit rate : 384 Kbps
    Channel(s) : 6 channels
    Channel positions : Front: L C R, Side: L R, LFE
    Sampling rate : 48.0 KHz
    Bit depth : 16 bits
    Compression mode : Lossy
    Stream size : 62.0 MiB (4%)
    Language : Portuguese

    Link(s):
    Hidden Content:
    You must either reply or click 'Like' to see the hidden information contained here.
     
    Last edited: Mar 8, 2017
    MasterMan and bodywave like this.
  2. Loading...


  3. CELOBRAZiL

    CELOBRAZiL Well-Known Member Capper V . I . P. Donor

    Joined:
    Oct 2, 2013
    Messages:
    2,987
    Likes Received:
    8,526
    I love so much Depeche Mode! :love::love::love: :)
     
  4. nolynexor88

    nolynexor88 Well-Known Member

    Joined:
    Sep 29, 2015
    Messages:
    1,050
    Likes Received:
    55
    thank you
     
    CELOBRAZiL likes this.
  5. xavier777

    xavier777 Active Member

    Joined:
    Aug 29, 2016
    Messages:
    407
    Likes Received:
    36
    Thanks
     
    CELOBRAZiL likes this.
  6. meloman67

    meloman67 Active Member

    Joined:
    Jun 8, 2014
    Messages:
    683
    Likes Received:
    64
    Thanks
     
    CELOBRAZiL likes this.