HDTV Rock Icons - Ted Nugent 2015 BISHD 1080i HDTV DD5.1 H.264 CELOBRAZiL-HDMania

Discussion in 'Documentaries' started by CELOBRAZiL, Mar 13, 2018.

  1. CELOBRAZiL

    CELOBRAZiL Well-Known Member Capper V . I . P. Donor

    Joined:
    Oct 2, 2013
    Messages:
    5,672
    Likes Received:
    18,225
    Rock Icons - Ted Nugent 2015 BISHD 1080i HDTV DD5.1 H.264 CELOBRAZiL-HDMania

    [​IMG]



    Format : MPEG-TS
    File size : 1.24 GiB
    Duration : 21 min 52 s
    Overall bit rate mode : Variable
    Overall bit rate : 8 086 kb/s

    Video
    ID : 420 (0x1A4)
    Menu ID : 5142 (0x1416)
    Format : AVC
    Format/Info : Advanced Video Codec
    Format profile : High@L4
    Format settings : CABAC / 4 Ref Frames
    Format settings, CABAC : Yes
    Format settings, RefFrames : 4 frames
    Format settings, GOP : M=4, N=32
    Codec ID : 27
    Duration : 21 min 52 s
    Bit rate : 7 299 kb/s
    Width : 1 920 pixels
    Height : 1 080 pixels
    Display aspect ratio : 16:9
    Frame rate : 29.970 (30000/1001) FPS
    Color space : YUV
    Chroma subsampling : 4:2:0
    Bit depth : 8 bits
    Scan type : MBAFF
    Scan type, store method : Interleaved fields
    Scan order : Top Field First
    Bits/(Pixel*Frame) : 0.117
    Stream size : 1.12 GiB (90%)

    Audio
    ID : 424 (0x1A8)
    Menu ID : 5142 (0x1416)
    Format : AC-3
    Format/Info : Audio Coding 3
    Codec ID : 129
    Duration : 21 min 52 s
    Bit rate mode : Constant
    Bit rate : 384 kb/s
    Channel(s) : 6 channels
    Channel positions : Front: L C R, Side: L R, LFE
    Sampling rate : 48.0 kHz
    Frame rate : 31.250 FPS (1536 SPF)
    Bit depth : 16 bits
    Compression mode : Lossy
    Stream size : 60.1 MiB (5%)
    Language : English
    Service kind : Complete Main

    Link(s):
    Hidden Content:
    You must either reply or click 'Like' to see the hidden information contained here.
     
    jennymayrye likes this.
  2. Loading...


  3. slashero82

    slashero82 Member

    Joined:
    Nov 20, 2016
    Messages:
    44
    Likes Received:
    3
    hola amigo, grabaste el de Slash? gracias
     
  4. CELOBRAZiL

    CELOBRAZiL Well-Known Member Capper V . I . P. Donor

    Joined:
    Oct 2, 2013
    Messages:
    5,672
    Likes Received:
    18,225
    @slashero82, i don't know yet... I've to check it! :)
     
    slashero82 likes this.
  5. slashero82

    slashero82 Member

    Joined:
    Nov 20, 2016
    Messages:
    44
    Likes Received:
    3
    seria genial si lo tuviese gracias por responder genio
     
    CELOBRAZiL likes this.