HDTV Roberto Carlos Especial - Esse Cara 22-Dec-2017 GLOBOHD 1080i HDTV DD5.1 H.264 CELOBRAZiL-HDMania

Discussion in 'HD Live Performances' started by CELOBRAZiL, Jan 12, 2018 at 6:31 PM.

  1. CELOBRAZiL

    CELOBRAZiL Well-Known Member Capper V . I . P. Donor

    Joined:
    Oct 2, 2013
    Messages:
    4,217
    Likes Received:
    13,303
    Roberto Carlos Especial - Esse Cara 22-Dec-2017 GLOBOHD 1080i HDTV DD5.1 H.264 CELOBRAZiL-HDMania

    [​IMG]



    Format : MPEG-TS
    File size : 7.67 GiB
    Duration : 1h 12mn
    Overall bit rate mode : Variable
    Overall bit rate : 15.1 Mbps

    Video
    ID : 273 (0x111)
    Menu ID : 257 (0x101)
    Format : AVC
    Format/Info : Advanced Video Codec
    Format profile : [email protected]
    Format settings, CABAC : Yes
    Format settings, ReFrames : 2 frames
    Format settings, GOP : M=3, N=15
    Codec ID : 27
    Duration : 1h 12mn
    Bit rate mode : Variable
    Bit rate : 13.7 Mbps
    Maximum bit rate : 24.0 Mbps
    Width : 1 920 pixels
    Height : 1 080 pixels
    Display aspect ratio : 16:9
    Frame rate : 29.970 fps
    Color space : YUV
    Chroma subsampling : 4:2:0
    Bit depth : 8 bits
    Scan type : Interlaced
    Scan order : Top Field First
    Bits/(Pixel*Frame) : 0.220
    Stream size : 6.96 GiB (91%)
    Color range : Limited
    Color primaries : BT.709
    Transfer characteristics : BT.709
    Matrix coefficients : BT.709

    Audio
    ID : 277 (0x115)
    Menu ID : 257 (0x101)
    Format : AC-3
    Format/Info : Audio Coding 3
    Mode extension : CM (complete main)
    Format settings, Endianness : Big
    Codec ID : 129
    Duration : 1h 12mn
    Bit rate mode : Constant
    Bit rate : 640 Kbps
    Channel(s) : 6 channels
    Channel positions : Front: L C R, Side: L R, LFE
    Sampling rate : 48.0 KHz
    Bit depth : 16 bits
    Compression mode : Lossy
    Stream size : 333 MiB (4%)
    Language : English


    Link(s):
    Hidden Content:
    You must either reply or click 'Like' to see the hidden information contained here.
     
    Last edited: Jan 13, 2018 at 1:10 AM
  2. Loading...


  3. CELOBRAZiL

    CELOBRAZiL Well-Known Member Capper V . I . P. Donor

    Joined:
    Oct 2, 2013
    Messages:
    4,217
    Likes Received:
    13,303
    Added MEGA link! :)
     
  4. CELOBRAZiL

    CELOBRAZiL Well-Known Member Capper V . I . P. Donor

    Joined:
    Oct 2, 2013
    Messages:
    4,217
    Likes Received:
    13,303
    Added ZIPPYSHARE link! :)
     
  5. Adaros

    Adaros Active Member

    Joined:
    Jun 5, 2016
    Messages:
    484
    Likes Received:
    78
    Thanks
     
    CELOBRAZiL likes this.
  6. meloman67

    meloman67 Active Member

    Joined:
    Jun 8, 2014
    Messages:
    882
    Likes Received:
    130