HDTV Rita Ora - The Ride 1080i HDMania

Discussion in 'Documentaries' started by Dfrazzer, Jan 28, 2016.

  1. Dfrazzer

    Dfrazzer Super Moderator Staff Member Super Moderator Capper V . I . P. Donor

    Joined:
    Nov 4, 2013
    Messages:
    5,333
    Likes Received:
    12,086
    [​IMG] [​IMG] [​IMG] [​IMG]

    Code:
    General
    ID : 1 (0x1)
    Complete name : G:\Rita Ora - The Ride 1080i HDMania.ts
    Format : MPEG-TS
    File size : 3.88 GiB
    Duration : 43mn 57s
    Overall bit rate mode : Variable
    Overall bit rate : 12.6 Mbps
    
    Video
    ID : 100 (0x64)
    Menu ID : 2 (0x2)
    Format : AVC
    Format/Info : Advanced Video Codec
    Format profile : High@L4.0
    Format settings, CABAC : Yes
    Format settings, ReFrames : 2 frames
    Codec ID : 27
    Duration : 43mn 57s
    Bit rate mode : Variable
    Bit rate : 11.8 Mbps
    Maximum bit rate : 24.0 Mbps
    Width : 1 920 pixels
    Height : 1 080 pixels
    Display aspect ratio : 16:9
    Frame rate : 25.000 fps
    Color space : YUV
    Chroma subsampling : 4:2:0
    Bit depth : 8 bits
    Scan type : Interlaced
    Scan order : Top Field First
    Bits/(Pixel*Frame) : 0.227
    Stream size : 3.62 GiB (93%)
    Color primaries : BT.709
    Transfer characteristics : BT.709
    Matrix coefficients : BT.709
    
    Audio
    ID : 101 (0x65)
    Menu ID : 2 (0x2)
    Format : AAC
    Format/Info : Advanced Audio Codec
    Format version : Version 4
    Format profile : LC
    Muxing mode : ADTS
    Codec ID : 15
    Duration : 43mn 57s
    Bit rate mode : Variable
    Bit rate : 220 Kbps
    Channel(s) : 2 channels
    Channel positions : Front: L R
    Sampling rate : 48.0 KHz
    Compression mode : Lossy
    Stream size : 69.2 MiB (2%)
    
    Hidden Content:
    You must reply before you can see the hidden data contained here.
    Capped by me.
     
  2. Loading...


  3. alex

    alex Well-Known Member

    Joined:
    Nov 21, 2013
    Messages:
    4,579
    Likes Received:
    387
    Thank you so much
     
  4. yhnujm1

    yhnujm1 Member

    Joined:
    Jun 26, 2014
    Messages:
    379
    Likes Received:
    6
    thank you
     
  5. TherideRitaora

    TherideRitaora New Member

    Joined:
    Feb 8, 2016
    Messages:
    3
    Likes Received:
    0
    thank you
     
  6. matte521

    matte521 New Member

    Joined:
    Feb 28, 2016
    Messages:
    1
    Likes Received:
    0
    thank you
     
  7. GustavoBardusco

    GustavoBardusco New Member

    Joined:
    Nov 11, 2015
    Messages:
    8
    Likes Received:
    1
  8. Royer_2014

    Royer_2014 Member

    Joined:
    Mar 3, 2016
    Messages:
    51
    Likes Received:
    2
    Thank you
     
  9. tf135

    tf135 Well-Known Member

    Joined:
    Nov 14, 2014
    Messages:
    3,076
    Likes Received:
    181
    thank you
     
  10. Hd1080

    Hd1080 Member

    Joined:
    Oct 3, 2015
    Messages:
    48
    Likes Received:
    2
    Thank you
     
  11. franklele

    franklele Well-Known Member

    Joined:
    Nov 11, 2013
    Messages:
    2,371
    Likes Received:
    145
    thank you very much
     
  12. Winterheart

    Winterheart Member

    Joined:
    Oct 2, 2015
    Messages:
    123
    Likes Received:
    4
  13. webstarbb

    webstarbb Member

    Joined:
    May 31, 2014
    Messages:
    75
    Likes Received:
    7
    thank you
     
  14. Pavulon

    Pavulon Well-Known Member Donor

    Joined:
    Mar 22, 2016
    Messages:
    4,479
    Likes Received:
    891
    thanks
     
  15. vishalrangpuri001

    vishalrangpuri001 anonymous

    Joined:
    May 20, 2016
    Messages:
    172
    Likes Received:
    1
  16. divvy

    divvy Member

    Joined:
    Apr 26, 2016
    Messages:
    57
    Likes Received:
    0
    thanks
     
  17. DonWal

    DonWal Well-Known Member Capper V . I . P.

    Joined:
    May 11, 2015
    Messages:
    1,129
    Likes Received:
    2,565
    Thank You!
     
  18. Bouncer

    Bouncer Member

    Joined:
    Jan 5, 2016
    Messages:
    532
    Likes Received:
    13
    tks tks
     
  19. vicshu007

    vicshu007 Member

    Joined:
    Nov 1, 2016
    Messages:
    128
    Likes Received:
    1
  20. FanofTheStars

    FanofTheStars Well-Known Member

    Joined:
    Feb 11, 2017
    Messages:
    1,867
    Likes Received:
    157
    Hot Hot Rita. Thank you.
     
  21. waat

    waat Member

    Joined:
    Jan 19, 2015
    Messages:
    439
    Likes Received:
    10
    Thank You!