WEB-RiP Rita Ora - Summertime Ball 2018 09.06.18 720p

Discussion in 'HD Live Performances' started by RFL, Jun 12, 2018.

  1. RFL

    RFL Active Member

    Joined:
    Sep 21, 2014
    Messages:
    279
    Likes Received:
    207
    Rita Ora- Live (Summertime Ball 2018 09.06.18 - RFL)
    [​IMG]
    General
    Format : MPEG-4
    Format profile : Base Media
    Codec ID : isom (isom/iso2/avc1/mp41)
    File size : 1.21 GiB
    Duration : 31 min 34 s
    Overall bit rate mode : Variable
    Overall bit rate : 5 495 kb/s

    Video
    ID : 1
    Format : AVC
    Format/Info : Advanced Video Codec
    Format profile : Main@L4.1
    Format settings : CABAC / 4 Ref Frames
    Format settings, CABAC : Yes
    Format settings, ReFrames : 4 frames
    Codec ID : avc1
    Codec ID/Info : Advanced Video Coding
    Duration : 31 min 34 s
    Bit rate : 5 358 kb/s
    Width : 1 376 pixels
    Height : 776 pixels
    Display aspect ratio : 16:9
    Frame rate mode : Constant
    Frame rate : 30.000 FPS
    Original frame rate : 29.970 (30000/1001) FPS
    Standard : Component
    Color space : YUV
    Chroma subsampling : 4:2:0
    Bit depth : 8 bits
    Scan type : Progressive
    Bits/(Pixel*Frame) : 0.167
    Stream size : 1.18 GiB (98%)
    Encoded date : UTC 1970-01-01 00:00:00
    Tagged date : UTC 1970-01-01 00:00:00
    Color range : Limited

    Audio
    ID : 2
    Format : AAC
    Format/Info : Advanced Audio Codec
    Format profile : LC
    Codec ID : mp4a-40-2
    Duration : 31 min 34 s
    Duration_LastFrame : -21 ms
    Bit rate mode : Variable
    Bit rate : 132 kb/s
    Channel(s) : 2 channels
    Channel positions : Front: L R
    Sampling rate : 48.0 kHz
    Frame rate : 46.875 FPS (1024 SPF)
    Compression mode : Lossy
    Stream size : 29.9 MiB (2%)
    Encoded date : UTC 1970-01-01 00:00:00
    Tagged date : UTC 1970-01-01 00:00:00

    Setlist:
    1. Your Song
    2. I Will Never Let You Down
    3. Lonely Together
    4. Girls
    5. Black Widow
    6. For You
    7. Anywhere

    Download:
    Hidden Content:
    You must reply before you can see the hidden data contained here.
     
    Last edited: Jun 12, 2018
  2. Loading...


  3. astra1234

    astra1234 Active Member

    Joined:
    Jul 1, 2016
    Messages:
    243
    Likes Received:
    35
    thanks
     
  4. inactive1326

    inactive1326 Member

    Joined:
    May 25, 2017
    Messages:
    50
    Likes Received:
    8
    looks great ty
     
  5. jeremywho

    jeremywho Active Member

    Joined:
    Dec 11, 2015
    Messages:
    156
    Likes Received:
    26
    Thank you.
     
  6. killers23

    killers23 Active Member

    Joined:
    Feb 27, 2015
    Messages:
    831
    Likes Received:
    95
  7. mewmwe

    mewmwe Active Member

    Joined:
    May 20, 2017
    Messages:
    632
    Likes Received:
    53
    thnaks
     
  8. ruth

    ruth New Member

    Joined:
    Jun 4, 2017
    Messages:
    21
    Likes Received:
    0
    Thanks
     
  9. Adaros

    Adaros Active Member

    Joined:
    Jun 5, 2016
    Messages:
    618
    Likes Received:
    86
  10. fake1

    fake1 Member

    Joined:
    Feb 8, 2017
    Messages:
    101
    Likes Received:
    2
  11. tf135

    tf135 Well-Known Member

    Joined:
    Nov 14, 2014
    Messages:
    3,074
    Likes Received:
    181
  12. hungquocphan

    hungquocphan Active Member

    Joined:
    Nov 1, 2013
    Messages:
    701
    Likes Received:
    36
  13. ben_richards

    ben_richards Active Member

    Joined:
    Feb 2, 2016
    Messages:
    400
    Likes Received:
    44
  14. withcap

    withcap Well-Known Member

    Joined:
    Oct 29, 2013
    Messages:
    2,053
    Likes Received:
    147
  15. Antonio Barros

    Antonio Barros Well-Known Member

    Joined:
    Nov 14, 2013
    Messages:
    1,173
    Likes Received:
    158
  16. feet65

    feet65 Well-Known Member

    Joined:
    Nov 12, 2013
    Messages:
    1,490
    Likes Received:
    97
  17. crash22

    crash22 Member

    Joined:
    Nov 3, 2013
    Messages:
    249
    Likes Received:
    5
  18. submariner9728

    submariner9728 Well-Known Member

    Joined:
    Dec 26, 2014
    Messages:
    1,090
    Likes Received:
    26
  19. zzrlisa

    zzrlisa Member

    Joined:
    Dec 4, 2015
    Messages:
    238
    Likes Received:
    20
  20. 鄭景文

    鄭景文 Member

    Joined:
    Dec 10, 2017
    Messages:
    264
    Likes Received:
    6
  21. Adriano Everton

    Adriano Everton Well-Known Member

    Joined:
    Aug 25, 2014
    Messages:
    1,662
    Likes Received:
    178