Rita Ora - I Will Never Let You Down (Deluxe Music HD-1080i-DD2.0)-Olgold

Discussion in 'DELUXE MUSIC HD' started by Olgold, Aug 26, 2015.

  1. Olgold

    Olgold Well-Known Member Capper

    Joined:
    Aug 19, 2015
    Messages:
    436
    Likes Received:
    1,677
    [​IMG]
    General
    Format : MPEG-TS
    File size : 120 MiB
    Duration : 3mn 16s
    Overall bit rate mode : Variable
    Overall bit rate : 5 131 Kbps

    Video
    Format : AVC
    Format/Info : Advanced Video Codec
    Format profile : [email protected]
    Format settings, CABAC : Yes
    Format settings, ReFrames : 4 frames
    Duration : 3mn 15s
    Bit rate : 4 490 Kbps
    Width : 1 280 pixels
    Height : 1 080 pixels
    Display aspect ratio : 16:9
    Frame rate : 25.000 fps
    Standard : Component
    Color space : YUV
    Chroma subsampling : 4:2:0
    Bit depth : 8 bits
    Scan type : Interlaced
    Scan order : Top Field First
    Bits/(Pixel*Frame) : 0.130
    Stream size : 105 MiB (87%)
    Color range : Limited

    Audio
    Format : AC-3
    Format/Info : Audio Coding 3
    Mode extension : CM (complete main)
    Format settings, Endianness : Big
    Duration : 3mn 17s
    Bit rate mode : Constant
    Bit rate : 384 Kbps
    Channel(s) : 2 channels
    Channel positions : Front: L R
    Sampling rate : 48.0 KHz
    Compression mode : Lossy
    Delay relative to video : -852ms
    Stream size : 9.04 MiB (8%)
    Language : German
    Language, more info : Clean effects

    Hidden Content:
    You must reply before you can see the hidden data contained here.
     
    wolf2015, rhea, Dreamer and 2 others like this.
  2. Loading...


  3. Dreamer

    Dreamer Lana Del Rey ♥ Halsey Capper V . I . P. Uploader

    Joined:
    Dec 4, 2014
    Messages:
    2,805
    Likes Received:
    3,934
    Thank you so much
     
  4. Zatimi

    Zatimi Active Member

    Joined:
    Aug 27, 2014
    Messages:
    719
    Likes Received:
    131
    thanks so much
     
  5. Crusha

    Crusha Well-Known Member Capper V . I . P.

    Joined:
    Oct 15, 2014
    Messages:
    2,356
    Likes Received:
    2,523
    thank you
     
  6. rhea

    rhea Well-Known Member

    Joined:
    Jan 6, 2014
    Messages:
    6,620
    Likes Received:
    681
    thank you so much! :)
     
  7. kodak555

    kodak555 Member

    Joined:
    Jun 8, 2016
    Messages:
    49
    Likes Received:
    1
    thank you~~~
     
  8. BinhTVT

    BinhTVT Member

    Joined:
    Jun 30, 2015
    Messages:
    182
    Likes Received:
    3
    thank u
     
  9. wolf2015

    wolf2015 Active Member

    Joined:
    Jan 1, 2015
    Messages:
    644
    Likes Received:
    25
    thank you
     
  10. Joseph

    Joseph Active Member

    Joined:
    Dec 10, 2013
    Messages:
    746
    Likes Received:
    167
    thanks
     
  11. hanshermann

    hanshermann Well-Known Member Uploader

    Joined:
    Aug 24, 2016
    Messages:
    4,679
    Likes Received:
    2,353
    wahts taht
     
  12. JPGAmbrosino

    JPGAmbrosino Member

    Joined:
    Jul 30, 2016
    Messages:
    228
    Likes Received:
    7
    txs a lotttt