WEB-RiP Rita Ora - Capital FM Summertime Ball 2019

Discussion in 'SD Live Performances' started by MarkHorax, Jun 9, 2019.

  1. MarkHorax

    MarkHorax Well-Known Member

    Joined:
    Dec 10, 2016
    Messages:
    730
    Likes Received:
    1,340
    [​IMG]
    Code:
    General
    Complete name                  : D:\ffmpeg\Rita Ora - Capital FM Summertime Ball 2019.mp4
    Format                         : MPEG-4
    Format profile                 : Base Media
    Codec ID                       : isom (isom/iso2/avc1/mp41)
    File size                      : 732 MiB
    Duration                       : 19 min 58 s
    Overall bit rate mode          : Constant
    Overall bit rate               : 5 123 kb/s
    Writing application            : Lavf57.71.100
    
    Video
    ID                             : 1
    Format                         : AVC
    Format/Info                    : Advanced Video Codec
    Format profile                 : Main@L4
    Format settings, CABAC         : Yes
    Format settings, RefFrames     : 2 frames
    Codec ID                       : avc1
    Codec ID/Info                  : Advanced Video Coding
    Duration                       : 19 min 58 s
    Bit rate mode                  : Constant
    Bit rate                       : 5 000 kb/s
    Width                          : 1 920 pixels
    Height                         : 1 080 pixels
    Display aspect ratio           : 16:9
    Frame rate mode                : Constant
    Frame rate                     : 25.000 FPS
    Color space                    : YUV
    Chroma subsampling             : 4:2:0
    Bit depth                      : 8 bits
    Scan type                      : Progressive
    Bits/(Pixel*Frame)             : 0.096
    Stream size                    : 713 MiB (97%)
    
    Audio
    ID                             : 2
    Format                         : AAC
    Format/Info                    : Advanced Audio Codec
    Format profile                 : LC
    Codec ID                       : 40
    Duration                       : 19 min 58 s
    Bit rate mode                  : Constant
    Bit rate                       : 125 kb/s
    Channel(s)                     : 2 channels
    Channel positions              : Front: L R
    Sampling rate                  : 48.0 kHz
    Frame rate                     : 46.875 FPS (1024 SPF)
    Compression mode               : Lossy
    Stream size                    : 17.9 MiB (2%)
    Default                        : Yes
    Alternate group                : 1
    Hidden Content:
    You must either reply or click 'Like' to see the hidden information contained here.
     
    lalololo, andyh112, kiiwii and 10 others like this.
  2. Loading...


  3. Dream66

    Dream66 Active Member

    Joined:
    Jan 24, 2016
    Messages:
    968
    Likes Received:
    215
    Thanks :) Btw where do you get this web-rip version without watermarks?
     
  4. amorafodasepiroks

    amorafodasepiroks Active Member

    Joined:
    Apr 14, 2018
    Messages:
    528
    Likes Received:
    54
  5. edgar

    edgar Well-Known Member

    Joined:
    Oct 12, 2013
    Messages:
    2,468
    Likes Received:
    2,428
    OMG Thank you so so much:love::love::love:
     
  6. DEADLYCYNS

    DEADLYCYNS Active Member

    Joined:
    Feb 2, 2017
    Messages:
    498
    Likes Received:
    31
  7. GPL4EVER

    GPL4EVER Member

    Joined:
    Oct 19, 2013
    Messages:
    248
    Likes Received:
    14
    thanks
     
  8. uminomiyako

    uminomiyako Well-Known Member

    Joined:
    May 28, 2016
    Messages:
    3,422
    Likes Received:
    181
  9. sideshow_bob

    sideshow_bob Well-Known Member

    Joined:
    Dec 20, 2013
    Messages:
    3,485
    Likes Received:
    418
  10. markjackson

    markjackson Well-Known Member

    Joined:
    Jan 8, 2014
    Messages:
    1,240
    Likes Received:
    81
    thank you!
     
  11. mandlasz

    mandlasz Active Member

    Joined:
    Sep 15, 2018
    Messages:
    611
    Likes Received:
    41
    thankssss
     
  12. exterminador

    exterminador Well-Known Member

    Joined:
    Jul 3, 2016
    Messages:
    2,996
    Likes Received:
    293
  13. PositiveRush97

    PositiveRush97 Member

    Joined:
    Jan 19, 2017
    Messages:
    139
    Likes Received:
    10
  14. Wimpy2

    Wimpy2 Active Member

    Joined:
    Jan 21, 2014
    Messages:
    885
    Likes Received:
    56
    thanks
     
  15. Aleafkey

    Aleafkey Active Member

    Joined:
    May 16, 2019
    Messages:
    260
    Likes Received:
    27
    thank
     
  16. Pham tuan

    Pham tuan Well-Known Member

    Joined:
    Dec 23, 2018
    Messages:
    1,031
    Likes Received:
    107
    thanks
     
  17. SKY2001

    SKY2001 New Member

    Joined:
    Sep 25, 2019
    Messages:
    22
    Likes Received:
    1
    thank you