WEB-RiP Rita Ora - Capital FM Summertime Ball 2019

Discussion in 'SD Live Performances' started by MarkHorax, Jun 9, 2019.

  1. MarkHorax

    MarkHorax Well-Known Member

    Joined:
    Dec 10, 2016
    Messages:
    699
    Likes Received:
    1,243
    [​IMG]
    Code:
    General
    Complete name                  : D:\ffmpeg\Rita Ora - Capital FM Summertime Ball 2019.mp4
    Format                         : MPEG-4
    Format profile                 : Base Media
    Codec ID                       : isom (isom/iso2/avc1/mp41)
    File size                      : 732 MiB
    Duration                       : 19 min 58 s
    Overall bit rate mode          : Constant
    Overall bit rate               : 5 123 kb/s
    Writing application            : Lavf57.71.100
    
    Video
    ID                             : 1
    Format                         : AVC
    Format/Info                    : Advanced Video Codec
    Format profile                 : Main@L4
    Format settings, CABAC         : Yes
    Format settings, RefFrames     : 2 frames
    Codec ID                       : avc1
    Codec ID/Info                  : Advanced Video Coding
    Duration                       : 19 min 58 s
    Bit rate mode                  : Constant
    Bit rate                       : 5 000 kb/s
    Width                          : 1 920 pixels
    Height                         : 1 080 pixels
    Display aspect ratio           : 16:9
    Frame rate mode                : Constant
    Frame rate                     : 25.000 FPS
    Color space                    : YUV
    Chroma subsampling             : 4:2:0
    Bit depth                      : 8 bits
    Scan type                      : Progressive
    Bits/(Pixel*Frame)             : 0.096
    Stream size                    : 713 MiB (97%)
    
    Audio
    ID                             : 2
    Format                         : AAC
    Format/Info                    : Advanced Audio Codec
    Format profile                 : LC
    Codec ID                       : 40
    Duration                       : 19 min 58 s
    Bit rate mode                  : Constant
    Bit rate                       : 125 kb/s
    Channel(s)                     : 2 channels
    Channel positions              : Front: L R
    Sampling rate                  : 48.0 kHz
    Frame rate                     : 46.875 FPS (1024 SPF)
    Compression mode               : Lossy
    Stream size                    : 17.9 MiB (2%)
    Default                        : Yes
    Alternate group                : 1
    Hidden Content:
    You must either reply or click 'Like' to see the hidden information contained here.
     
    apl3, pariswhit, NEAL1905 and 7 others like this.
  2. Loading...


  3. Dream66

    Dream66 Active Member

    Joined:
    Jan 24, 2016
    Messages:
    870
    Likes Received:
    191
    Thanks :) Btw where do you get this web-rip version without watermarks?
     
  4. amorafodasepiroks

    amorafodasepiroks Active Member

    Joined:
    Apr 14, 2018
    Messages:
    444
    Likes Received:
    32
  5. edgar

    edgar Well-Known Member

    Joined:
    Oct 12, 2013
    Messages:
    2,272
    Likes Received:
    2,307
    OMG Thank you so so much:love::love::love:
     
  6. DEADLYCYNS

    DEADLYCYNS Active Member

    Joined:
    Feb 2, 2017
    Messages:
    479
    Likes Received:
    30
  7. GPL4EVER

    GPL4EVER Member

    Joined:
    Oct 19, 2013
    Messages:
    213
    Likes Received:
    11
    thanks
     
  8. uminomiyako

    uminomiyako Well-Known Member

    Joined:
    May 28, 2016
    Messages:
    3,288
    Likes Received:
    143
  9. sideshow_bob

    sideshow_bob Well-Known Member

    Joined:
    Dec 20, 2013
    Messages:
    3,408
    Likes Received:
    375
  10. markjackson

    markjackson Well-Known Member

    Joined:
    Jan 8, 2014
    Messages:
    1,149
    Likes Received:
    63
  11. mandlasz

    mandlasz Active Member

    Joined:
    Sep 15, 2018
    Messages:
    450
    Likes Received:
    26
  12. exterminador

    exterminador Well-Known Member

    Joined:
    Jul 3, 2016
    Messages:
    2,874
    Likes Received:
    256