SDTV Rita Ora - BBC Radio 2 Live in Hyde Park 2018 (BBC RB1 - 09Sep2018)-dylwys

Discussion in 'SD Live Performances' started by CELOBRAZiL, Aug 20, 2019.

  1. CELOBRAZiL

    CELOBRAZiL Well-Known Member Capper V . I . P. Donor

    Joined:
    Oct 2, 2013
    Messages:
    7,606
    Likes Received:
    25,348
    Rita Ora - BBC Radio 2 Live in Hyde Park 2018 (BBC RB1 - 09Sep2018)-dylwys

    [​IMG]



    Format : MPEG-TS
    File size : 1.25 GiB
    Duration : 33 min 41 s
    Overall bit rate mode : Variable
    Overall bit rate : 5 308 kb/s

    Video
    ID : 5400 (0x1518)
    Menu ID : 6390 (0x18F6)
    Format : MPEG Video
    Format version : Version 2
    Format profile : Main@Main
    Format settings : CustomMatrix / BVOP
    Format settings, BVOP : Yes
    Format settings, Matrix : Custom
    Format settings, GOP : M=3, N=36
    Format settings, picture structure : Frame
    Codec ID : 2
    Duration : 33 min 40 s
    Bit rate mode : Variable
    Bit rate : 4 851 kb/s
    Maximum bit rate : 15.0 Mb/s
    Width : 720 pixels
    Height : 576 pixels
    Display aspect ratio : 16:9
    Frame rate : 25.000 FPS
    Standard : PAL
    Color space : YUV
    Chroma subsampling : 4:2:0
    Bit depth : 8 bits
    Scan type : Interlaced
    Scan order : Top Field First
    Compression mode : Lossy
    Bits/(Pixel*Frame) : 0.468
    Stream size : 1.14 GiB (91%)

    Audio
    ID : 5401 (0x1519)
    Menu ID : 6390 (0x18F6)
    Format : MPEG Audio
    Format version : Version 1
    Format profile : Layer 2
    Format settings : Joint stereo / Intensity Stereo + MS Stereo
    Codec ID : 3
    Duration : 33 min 40 s
    Bit rate mode : Constant
    Bit rate : 192 kb/s
    Channel(s) : 2 channels
    Sampling rate : 48.0 kHz
    Frame rate : 41.667 FPS (1152 SPF)
    Compression mode : Lossy
    Delay relative to video : 84 ms
    Stream size : 46.3 MiB (4%)
    Language : English



    Link(s):
    Hidden Content:
    You must either reply or click 'Like' to see the hidden information contained here.
     
  2. Loading...


  3. CELOBRAZiL

    CELOBRAZiL Well-Known Member Capper V . I . P. Donor

    Joined:
    Oct 2, 2013
    Messages:
    7,606
    Likes Received:
    25,348
    :love::love::love:

    Added GOOGLE DRIVE link! :)
     
  4. Dream66

    Dream66 Active Member

    Joined:
    Jan 24, 2016
    Messages:
    939
    Likes Received:
    208
    Thanks Celo! :happy::happy::happy:
     
    CELOBRAZiL likes this.
  5. rhea

    rhea Well-Known Member

    Joined:
    Jan 6, 2014
    Messages:
    9,720
    Likes Received:
    1,689
    thank you
     
    CELOBRAZiL likes this.
  6. sideshow_bob

    sideshow_bob Well-Known Member

    Joined:
    Dec 20, 2013
    Messages:
    3,464
    Likes Received:
    405
    Thanks!
     
    CELOBRAZiL likes this.
  7. mcslimshady

    mcslimshady Well-Known Member

    Joined:
    Jun 20, 2016
    Messages:
    2,603
    Likes Received:
    102
    thanks man
     
    CELOBRAZiL likes this.
  8. exterminador

    exterminador Well-Known Member

    Joined:
    Jul 3, 2016
    Messages:
    2,958
    Likes Received:
    280
    Thanks!
     
    CELOBRAZiL likes this.
  9. Aleafkey

    Aleafkey Member

    Joined:
    May 16, 2019
    Messages:
    213
    Likes Received:
    22
    thank
     
    CELOBRAZiL likes this.