Rihanna - Who's That Chick (Day Version) [Master-576p]

Discussion in 'SD Live Performances' started by adam dark, Dec 27, 2014.

  1. adam dark

    adam dark Video Music Lover <3 V . I . P.

    Joined:
    Dec 5, 2013
    Messages:
    2,619
    Likes Received:
    5,040
    Rihanna - Who's That Chick (Day Version) [Master-576p]

    [​IMG]

    [​IMG]

    [​IMG]

    [​IMG]

    [​IMG]
    Code:
    General
    Complete name                  : Rihanna - Who's That Chick (Day Version) [Master-576p].mov
    Format                         : MPEG-4
    Format profile                 : QuickTime
    Codec ID                       : qt 
    File size                      : 200 MiB
    Duration                       : 3mn 14s
    Overall bit rate               : 8 608 Kbps
    Encoded date                   : UTC 2010-09-21 10:12:18
    Tagged date                    : UTC 2011-10-27 11:17:29
    Writing library                : Apple QuickTime
    
    Video
    ID                             : 2
    Format                         : AVC
    Format/Info                    : Advanced Video Codec
    Format profile                 : [email protected]
    Format settings, CABAC         : No
    Format settings, ReFrames      : 2 frames
    Codec ID                       : avc1
    Codec ID/Info                  : Advanced Video Coding
    Duration                       : 3mn 14s
    Bit rate                       : 7 069 Kbps
    Width                          : 720 pixels
    Height                         : 576 pixels
    Display aspect ratio           : 5:4
    Frame rate mode                : Constant
    Frame rate                     : 25.000 fps
    Standard                       : PAL
    Color space                    : YUV
    Chroma subsampling             : 4:2:0
    Bit depth                      : 8 bits
    Scan type                      : Progressive
    Bits/(Pixel*Frame)             : 0.682
    Stream size                    : 164 MiB (82%)
    Language                       : English
    Encoded date                   : UTC 2010-09-21 10:38:52
    Tagged date                    : UTC 2010-09-21 10:40:35
    Color primaries                : BT.601 NTSC
    Transfer characteristics       : BT.709
    Matrix coefficients            : BT.601
    
    Audio
    ID                             : 1
    Format                         : PCM
    Format settings, Endianness    : Little
    Format settings, Sign          : Signed
    Codec ID                       : sowt
    Duration                       : 3mn 14s
    Bit rate mode                  : Constant
    Bit rate                       : 1 536 Kbps
    Channel(s)                     : 2 channels
    Channel positions              : Front: L R
    Sampling rate                  : 48.0 KHz
    Bit depth                      : 16 bits
    Stream size                    : 35.6 MiB (18%)
    Language                       : English
    Encoded date                   : UTC 2010-09-21 10:38:52
    Tagged date                    : UTC 2010-09-21 10:40:35
    Hidden Content:
    You must either reply or click 'Like' to see the hidden information contained here.
    Credit to the original Capper
     
  2. Loading...


  3. toonbbv

    toonbbv Well-Known Member

    Joined:
    Dec 11, 2013
    Messages:
    1,691
    Likes Received:
    81
    thank yopu
     
  4. KallumLavigne

    KallumLavigne Well-Known Member

    Joined:
    Nov 18, 2013
    Messages:
    677
    Likes Received:
    1,319
    thanks!
     
  5. indreams2011

    indreams2011 Member

    Joined:
    Dec 10, 2014
    Messages:
    663
    Likes Received:
    19
     
  6. talata

    talata Member

    Joined:
    Nov 14, 2013
    Messages:
    271
    Likes Received:
    7
    Thank u sooooo much !
     
  7. lim

    lim Well-Known Member

    Joined:
    Nov 8, 2013
    Messages:
    1,813
    Likes Received:
    36
    thank you
     
  8. taram326

    taram326 Member

    Joined:
    Sep 21, 2014
    Messages:
    179
    Likes Received:
    17
     
  9. submariner9728

    submariner9728 Member

    Joined:
    Dec 26, 2014
    Messages:
    996
    Likes Received:
    22
  10. Riri95

    Riri95 Member

    Joined:
    Apr 21, 2015
    Messages:
    108
    Likes Received:
    1
    thank u
     
  11. lpplus

    lpplus LP & MET Fan

    Joined:
    Sep 28, 2014
    Messages:
    812
    Likes Received:
    3,231
    Thank you
     
  12. Diamond

    Diamond Member

    Joined:
    Apr 9, 2014
    Messages:
    210
    Likes Received:
    4
    thank you
     
  13. Snorom6

    Snorom6 Well-Known Member V . I . P. Uploader

    Joined:
    Dec 17, 2015
    Messages:
    4,248
    Likes Received:
    5,309
  14. sideshow_bob

    sideshow_bob Well-Known Member

    Joined:
    Dec 20, 2013
    Messages:
    3,067
    Likes Received:
    195
  15. revilo18

    revilo18 Well-Known Member

    Joined:
    May 26, 2016
    Messages:
    1,891
    Likes Received:
    85
    THANJJJ
     
    francolo likes this.
  16. uminomiyako

    uminomiyako Well-Known Member

    Joined:
    May 28, 2016
    Messages:
    1,807
    Likes Received:
    69
  17. luigip2000

    luigip2000 Member

    Joined:
    Jul 5, 2016
    Messages:
    139
    Likes Received:
    13
  18. spyro10

    spyro10 New Member

    Joined:
    Jul 2, 2016
    Messages:
    29
    Likes Received:
    0
    thank so much
     
  19. submariner9728

    submariner9728 Member

    Joined:
    Dec 26, 2014
    Messages:
    996
    Likes Received:
    22
  20. francolo

    francolo Member

    Joined:
    Jun 9, 2016
    Messages:
    209
    Likes Received:
    8
  21. zyao

    zyao Member

    Joined:
    Oct 12, 2016
    Messages:
    332
    Likes Received:
    7
    thanks