HDTV Rihanna - Whats My Name & Only Girl In The World 11-21-10 @ American Music Awards 2010 720p

Discussion in 'HD Live Performances' started by hanshermann, Dec 19, 2017.

  1. hanshermann

    hanshermann Well-Known Member Uploader

    Joined:
    Aug 24, 2016
    Messages:
    6,464
    Likes Received:
    9,976
    [​IMG]

    Rihanna - Whats My Name & Only Girl In The World 11-21-10 @ American Music Awards 2010 720p

    Code:
    General
    Complete name               : Rihanna-Whats-My-Name-Only-Girl-In-The-World-112110-American-Music-Awards-2010.mpg
    Format                      : MPEG-PS
    File size                   : 524 MiB
    Duration                    : 5 min 38 s
    Overall bit rate mode       : Variable
    Overall bit rate            : 13.0 Mb/s
    Movie name                  : 2010 AMERICAN MUSIC AWARDS
    Law rating                  : TV-14 (DL)
    
    Video
    ID                          : 224 (0xE0)
    Format                      : MPEG Video
    Format version              : Version 2
    Format profile              : Main@High
    Format settings, BVOP       : Yes
    Format settings, Matrix     : Custom
    Format settings, GOP        : Variable
    Duration                    : 5 min 38 s
    Bit rate mode               : Variable
    Bit rate                    : 12.4 Mb/s
    Maximum bit rate            : 24.0 Mb/s
    Width                       : 1 280 pixels
    Height                      : 720 pixels
    Display aspect ratio        : 16:9
    Frame rate                  : 59.940 (60000/1001) FPS
    Color space                 : YUV
    Chroma subsampling          : 4:2:0
    Bit depth                   : 8 bits
    Scan type                   : Progressive
    Compression mode            : Lossy
    Bits/(Pixel*Frame)          : 0.224
    Time code of first frame    : 00:01:55;52
    Time code source            : Group of pictures header
    GOP, Open/Closed            : Open
    Stream size                 : 498 MiB (95%)
    
    Audio
    ID                          : 189 (0xBD)-128 (0x80)
    Format                      : AC-3
    Format/Info                 : Audio Coding 3
    Format settings, Endianness : Big
    Muxing mode                 : DVD-Video
    Duration                    : 5 min 38 s
    Bit rate mode               : Constant
    Bit rate                    : 384 kb/s
    Channel(s)                  : 6 channels
    Channel positions           : Front: L C R, Side: L R, LFE
    Sampling rate               : 48.0 kHz
    Frame rate                  : 31.250 FPS (1536 spf)
    Bit depth                   : 16 bits
    Compression mode            : Lossy
    Delay relative to video     : -77 ms
    Stream size                 : 15.5 MiB (3%)
    Service kind                : Complete Main
    
    Hidden Content:
    You must either reply or click 'Like' to see the hidden information contained here.
     
    Last edited: Apr 13, 2018
  2. Loading...


  3. submariner9728

    submariner9728 Well-Known Member

    Joined:
    Dec 26, 2014
    Messages:
    1,106
    Likes Received:
    26
  4. Pedro Correia

    Pedro Correia Well-Known Member

    Joined:
    Apr 17, 2014
    Messages:
    1,243
    Likes Received:
    132
    Thank you!
     
  5. 12wurzel

    12wurzel Active Member

    Joined:
    Oct 16, 2016
    Messages:
    432
    Likes Received:
    33
    thanks
     
  6. celshare

    celshare Well-Known Member

    Joined:
    Aug 11, 2014
    Messages:
    225
    Likes Received:
    615
    Thanks
     
  7. dark1angel

    dark1angel Member

    Joined:
    Oct 7, 2013
    Messages:
    145
    Likes Received:
    5
  8. jadastevens

    jadastevens Member

    Joined:
    Nov 3, 2017
    Messages:
    57
    Likes Received:
    2
    A SUPER GIRL
     
  9. frisby

    frisby Well-Known Member

    Joined:
    Nov 21, 2015
    Messages:
    1,476
    Likes Received:
    132
    thank you
     
  10. multimediafm

    multimediafm Well-Known Member Donor

    Joined:
    Mar 27, 2014
    Messages:
    12,883
    Likes Received:
    1,013
  11. withcap

    withcap Well-Known Member

    Joined:
    Oct 29, 2013
    Messages:
    2,111
    Likes Received:
    149
    Thank you!
     
  12. zuluka

    zuluka Well-Known Member

    Joined:
    Jul 9, 2016
    Messages:
    1,019
    Likes Received:
    31
    thanks
     
  13. apl3

    apl3 Well-Known Member

    Joined:
    Jun 11, 2017
    Messages:
    1,042
    Likes Received:
    29
    thanks
     
  14. bielg28

    bielg28 Member

    Joined:
    Dec 15, 2016
    Messages:
    131
    Likes Received:
    3
    xcgbfhggf
     
  15. marytsh

    marytsh mark

    Joined:
    Sep 10, 2017
    Messages:
    36
    Likes Received:
    1
    YESSSSSSSSSSSSS
     
  16. ianarturis

    ianarturis Member

    Joined:
    Jan 6, 2018
    Messages:
    365
    Likes Received:
    2
  17. Demon911

    Demon911 New Member

    Joined:
    May 10, 2017
    Messages:
    16
    Likes Received:
    0
    thanksthanks
     
  18. jvctr

    jvctr Member

    Joined:
    Nov 22, 2016
    Messages:
    89
    Likes Received:
    8
    thanks
     
  19. bjellerud

    bjellerud Member

    Joined:
    Jan 7, 2018
    Messages:
    200
    Likes Received:
    17
    thanks
     
  20. Jon

    Jon Member

    Joined:
    Dec 1, 2014
    Messages:
    122
    Likes Received:
    11
    Thank You For This
     
  21. MACHADO

    MACHADO Active Member

    Joined:
    Jun 12, 2017
    Messages:
    537
    Likes Received:
    31
    G
    RACIAS