Rihanna - What's My Name (feat. Drake) (TRACEURBANHD-1080i-MPA2.0-Djodjara)-HDMania

Discussion in 'TRACE URBAN HD' started by Djodjara, Dec 15, 2014.

  1. Djodjara

    Djodjara Gwen Fan Capper

    Joined:
    Sep 6, 2014
    Messages:
    825
    Likes Received:
    1,496
    Rihanna - What's My Name (TRACE HD-1080i-Djodjara)-HDMania

    [​IMG]
    [​IMG]

    General:
    ID : 1 (0x1)
    Format : MPEG-TS
    File size : 258 MiB
    Duration : 4mn 22s
    Overall bit rate mode : Variable
    Overall bit rate : 8 260 Kbps

    Video:
    ID : 1353 (0x549)
    Menu ID : 1 (0x1)
    Format : AVC
    Format/Info : Advanced Video Codec
    Format profile : [email protected]
    Format settings, CABAC : Yes
    Format settings, ReFrames : 4 frames
    Codec ID : 27
    Duration : 4mn 22s
    Bit rate : 7 658 Kbps
    Width : 1 920 pixels
    Height : 1 080 pixels
    Display aspect ratio : 16:9
    Frame rate : 25.000 fps
    Standard : Component
    Color space : YUV
    Chroma subsampling : 4:2:0
    Bit depth : 8 bits
    Scan type : Interlaced
    Bits/(Pixel*Frame) : 0.148
    Stream size : 239 MiB (93%)
    Color primaries : BT.709
    Transfer characteristics : BT.709
    Matrix coefficients : BT.709

    Audio:
    ID : 3374 (0xD2E)
    Menu ID : 1 (0x1)
    Format : MPEG Audio
    Format version : Version 1
    Format profile : Layer 2
    Codec ID : 3
    Duration : 4mn 22s
    Bit rate mode : Constant
    Bit rate : 192 Kbps
    Channel count : 2 channels
    Sampling rate : 48.0 KHz
    Compression mode : Lossy
    Stream size : 6.00 MiB (2%)
    Language : English

    Hidden Content:
    You must reply before you can see the hidden data contained here.
     
  2. Loading...


  3. withcap

    withcap Well-Known Member

    Joined:
    Oct 29, 2013
    Messages:
    1,778
    Likes Received:
    110
    Thank you!
     
  4. Dreamer

    Dreamer Lana Del Rey ♥ Halsey Capper V . I . P. Uploader

    Joined:
    Dec 4, 2014
    Messages:
    2,875
    Likes Received:
    4,222
    thanks
     
  5. dark1angel

    dark1angel Member

    Joined:
    Oct 7, 2013
    Messages:
    117
    Likes Received:
    5
  6. 777josem

    777josem ProRes 1080p LPCM V . I . P. Uploader

    Joined:
    Sep 1, 2014
    Messages:
    3,699
    Likes Received:
    2,887
    thanks!
     
  7. dangtungson

    dangtungson Member

    Joined:
    Feb 22, 2014
    Messages:
    213
    Likes Received:
    15
  8. rhea

    rhea Well-Known Member

    Joined:
    Jan 6, 2014
    Messages:
    6,838
    Likes Received:
    746
    thank you so much :)
     
  9. Crusha

    Crusha Well-Known Member Capper V . I . P.

    Joined:
    Oct 15, 2014
    Messages:
    2,358
    Likes Received:
    2,626
    thank you
     
  10. Grailen

    Grailen Well-Known Member

    Joined:
    Oct 8, 2013
    Messages:
    602
    Likes Received:
    765
    thanks
     
  11. klaus

    klaus Member

    Joined:
    Sep 11, 2014
    Messages:
    958
    Likes Received:
    20
    thanks
     
  12. ytyh

    ytyh Member

    Joined:
    Mar 30, 2014
    Messages:
    432
    Likes Received:
    4
    Thanks a lot
     
  13. marlyvasconceles

    marlyvasconceles Member

    Joined:
    Sep 7, 2014
    Messages:
    242
    Likes Received:
    2
    Lov this song
     
  14. celio

    celio Member

    Joined:
    Oct 29, 2013
    Messages:
    973
    Likes Received:
    18
  15. Binh

    Binh Member

    Joined:
    Nov 18, 2013
    Messages:
    86
    Likes Received:
    1
    thanks
     
  16. submariner9728

    submariner9728 Member

    Joined:
    Dec 26, 2014
    Messages:
    964
    Likes Received:
    22
  17. Albano Salinas

    Albano Salinas Well-Known Member

    Joined:
    Nov 6, 2014
    Messages:
    474
    Likes Received:
    1,055
    thank you !.-
     
  18. mizdot

    mizdot Well-Known Member

    Joined:
    Nov 13, 2014
    Messages:
    1,794
    Likes Received:
    48
    tnx man
     
  19. faizan

    faizan Member

    Joined:
    Mar 9, 2014
    Messages:
    44
    Likes Received:
    0
    very good
     
  20. PETTERTRAN119

    PETTERTRAN119 Member

    Joined:
    Sep 26, 2014
    Messages:
    123
    Likes Received:
    1
    thanks you .
     
  21. Vinny

    Vinny Well-Known Member

    Joined:
    Dec 26, 2013
    Messages:
    3,577
    Likes Received:
    25
    Thanks! ;D