Rihanna - What Now (M3HD-1080i-DD5.1-AmazonBoy)

Discussion in 'M3 HD' started by rgf72k, Nov 22, 2013.

  1. rgf72k

    rgf72k Founder Staff Member AdMiN

    Joined:
    Oct 1, 2013
    Messages:
    1,020
    Likes Received:
    15,465
    [​IMG]

    Code:
    General
    ID                                      : 1 (0x1)
    Complete name                            : Rihanna_-_What_Now_(M3HD-1080i-AmazonBoy).ts
    Format                                  : MPEG-TS
    File size                                : 389 MiB
    Duration                                : 4mn 3s
    Overall bit rate mode                    : Variable
    Overall bit rate                        : 13.4 Mbps
    
    Video
    ID                                      : 641 (0x281)
    Menu ID                                  : 1 (0x1)
    Format                                  : MPEG Video
    Format version                          : Version 2
    Format profile                          : [email protected]
    Format settings, BVOP                    : Yes
    Format settings, Matrix                  : Custom
    Format settings, GOP                    : Variable
    Codec ID                                : 2
    Duration                                : 4mn 2s
    Bit rate mode                            : Variable
    Bit rate                                : 12.4 Mbps
    Maximum bit rate                        : 24.0 Mbps
    Width                                    : 1 920 pixels
    Height                                  : 1 080 pixels
    Display aspect ratio                    : 16:9
    Frame rate                              : 29.970 fps
    Color space                              : YUV
    Chroma subsampling                      : 4:2:0
    Bit depth                                : 8 bits
    Compression mode                        : Lossy
    Bits/(Pixel*Frame)                      : 0.199
    Time code of first frame                : 00:00:00;00
    Time code source                        : Group of pictures header
    Stream size                              : 359 MiB (92%)
    Writing library                          : (c) 1998-2012 Womble Multimedia, Inc. / MPEG Video Wizard DVD 5.0.1.100 (03/2011) / Sep 22 2012
    
    Audio
    ID                                      : 642 (0x282)
    Menu ID                                  : 1 (0x1)
    Format                                  : AC-3
    Format/Info                              : Audio Coding 3
    Mode extension                          : CM (complete main)
    Format settings, Endianness              : Big
    Codec ID                                : 129
    Duration                                : 4mn 2s
    Bit rate mode                            : Constant
    Bit rate                                : 384 Kbps
    Channel(s)                              : 6 channels
    Channel positions                        : Front: L C R, Side: L R, LFE
    Sampling rate                            : 48.0 KHz
    Bit depth                                : 16 bits
    Compression mode                        : Lossy
    Stream size                              : 11.1 MiB (3%)
    Language                                : English
    


    Download:
    Hidden Content:
    You must either reply or click 'Like' to see the hidden information contained here.



    Password: sharemania.net



    Capper: AmazonBoy
     
  2. mg2242

    mg2242 Member

    Joined:
    Nov 30, 2013
    Messages:
    80
    Likes Received:
    0
    thank you
     
  3. lifevirgin

    lifevirgin Active Member

    Joined:
    Feb 15, 2014
    Messages:
    417
    Likes Received:
    34
     
  4. riv

    riv Member

    Joined:
    Feb 24, 2014
    Messages:
    60
    Likes Received:
    0
  5. MCTR

    MCTR Active Member

    Joined:
    Feb 23, 2014
    Messages:
    295
    Likes Received:
    40
    thanks
     
  6. iqson

    iqson Active Member

    Joined:
    Dec 30, 2013
    Messages:
    202
    Likes Received:
    70
    thanks
     
  7. leiduancanhong

    leiduancanhong Member

    Joined:
    Jun 14, 2014
    Messages:
    112
    Likes Received:
    0
  8. tetard

    tetard Well-Known Member

    Joined:
    Mar 29, 2014
    Messages:
    819
    Likes Received:
    1,416
    Thanks for the vid
     
  9. lukierrywhere

    lukierrywhere Member

    Joined:
    May 1, 2015
    Messages:
    170
    Likes Received:
    4
    files are offline
     
  10. Pavulon

    Pavulon Well-Known Member

    Joined:
    Mar 22, 2016
    Messages:
    2,783
    Likes Received:
    307
    thanks
     
  11. erroljr1977

    erroljr1977 Member

    Joined:
    Apr 18, 2017
    Messages:
    439
    Likes Received:
    8
    thanks