Rihanna - Umbrella (World Music Awards 2007) HDTV-720p [Reup]

Discussion in 'HD Live Performances' started by Scherzyboy, Mar 22, 2020.

  1. Scherzyboy

    Scherzyboy Super Moderator Staff Member Super Moderator V . I . P. Uploader Archiver

    Joined:
    May 14, 2015
    Messages:
    1,432
    Likes Received:
    2,309
    [​IMG]

    General
    Complete name : Rihanna - Umbrella (Live @ World Music Awards 2007)[HDTV-720p].mpg
    Format : MPEG-PS
    File size : 412 MiB
    Duration : 4 min 28 s
    Overall bit rate mode : Variable
    Overall bit rate : 12.9 Mb/s
    Movie name : WORLD MUSIC AWARDS
    Law rating : TV-PG

    Video
    ID : 224 (0xE0)
    Format : MPEG Video
    Commercial name : HDV 720p
    Format version : Version 2
    Format profile : Main@High
    Format settings : CustomMatrix / BVOP
    Format settings, BVOP : Yes
    Format settings, Matrix : Custom
    Format settings, GOP : M=3, N=30
    Duration : 4 min 28 s
    Bit rate mode : Variable
    Bit rate : 12.2 Mb/s
    Maximum bit rate : 13.6 Mb/s
    Width : 1 280 pixels
    Height : 720 pixels
    Display aspect ratio : 16:9
    Frame rate : 59.940 (60000/1001) FPS
    Standard : Component
    Color space : YUV
    Chroma subsampling : 4:2:0
    Bit depth : 8 bits
    Scan type : Progressive
    Compression mode : Lossy
    Bits/(Pixel*Frame) : 0.221
    Time code of first frame : 00:00:00:00
    Time code source : Group of pictures header
    GOP, Open/Closed : Open
    GOP, Open/Closed of first f : Closed
    Stream size : 391 MiB (95%)
    Color primaries : BT.709
    Transfer characteristics : BT.709
    Matrix coefficients : BT.709

    Audio
    ID : 189 (0xBD)-128 (0x80)
    Format : AC-3
    Format/Info : Audio Coding 3
    Commercial name : Dolby Digital
    Muxing mode : DVD-Video
    Duration : 4 min 28 s
    Bit rate mode : Constant
    Bit rate : 384 kb/s
    Channel(s) : 6 channels
    Channel layout : L R C LFE Ls Rs
    Sampling rate : 48.0 kHz
    Frame rate : 31.250 FPS (1536 SPF)
    Bit depth : 16 bits
    Compression mode : Lossy
    Stream size : 12.3 MiB (3%)
    Service kind : Complete Main

    Text #1
    ID : 224 (0xE0)-CC1
    Format : EIA-608
    Muxing mode : A/53 / DTVCC Transport
    Muxing mode, more info : Muxed in Video #1
    Duration : 4 min 28 s
    Bit rate mode : Constant
    Stream size : 0.00 Byte (0%)
    CaptionServiceName : CC1

    Text #2
    ID : 224 (0xE0)-CC3
    Format : EIA-608
    Muxing mode : A/53 / DTVCC Transport
    Muxing mode, more info : Muxed in Video #1
    Duration : 4 min 28 s
    Bit rate mode : Constant
    Stream size : 0.00 Byte (0%)
    CaptionServiceName : CC3

    Text #3
    ID : 224 (0xE0)-1
    Format : EIA-708
    Muxing mode : A/53 / DTVCC Transport
    Muxing mode, more info : Muxed in Video #1
    Duration : 4 min 28 s
    Bit rate mode : Constant
    Stream size : 0.00 Byte (0%)

    Text #4
    ID : 224 (0xE0)-2
    Format : EIA-708
    Muxing mode : A/53 / DTVCC Transport
    Muxing mode, more info : Muxed in Video #1
    Duration : 4 min 28 s
    Bit rate mode : Constant
    Stream size : 0.00 Byte (0%)

    [​IMG] MEGA link:
    Hidden Content:
    You must either reply or click 'Like' to see the hidden information contained here.
     
  2. Loading...


  3. femmemonsters

    femmemonsters Well-Known Member

    Joined:
    Oct 8, 2015
    Messages:
    1,379
    Likes Received:
    91
  4. honiamam

    honiamam Active Member

    Joined:
    Apr 1, 2016
    Messages:
    837
    Likes Received:
    113
    THANK YOU
     
  5. nino.navy

    nino.navy Well-Known Member

    Joined:
    May 30, 2014
    Messages:
    4,401
    Likes Received:
    345
    thanks a lot
     
  6. MichelleBright

    MichelleBright Well-Known Member

    Joined:
    Jul 20, 2019
    Messages:
    1,220
    Likes Received:
    195
    Appreciate :)
     
  7. Javistereo

    Javistereo Member

    Joined:
    Feb 10, 2020
    Messages:
    31
    Likes Received:
    2
    Excelente
     
  8. neb010203

    neb010203 Well-Known Member

    Joined:
    Sep 6, 2018
    Messages:
    1,826
    Likes Received:
    73
  9. kiiwii

    kiiwii Active Member

    Joined:
    Oct 10, 2013
    Messages:
    580
    Likes Received:
    26
    thanks
     
  10. Mike150486

    Mike150486 Member

    Joined:
    Jul 14, 2016
    Messages:
    110
    Likes Received:
    3
    Thank you very much
     
  11. voleinahole

    voleinahole Member

    Joined:
    Feb 16, 2017
    Messages:
    153
    Likes Received:
    9
    Thsanks
     
  12. Jenkins

    Jenkins Well-Known Member

    Joined:
    May 30, 2019
    Messages:
    24,612
    Likes Received:
    640
    THANKS
     
  13. sxhunluv

    sxhunluv New Member

    Joined:
    Feb 4, 2020
    Messages:
    21
    Likes Received:
    0
  14. mizdot

    mizdot Well-Known Member

    Joined:
    Nov 13, 2014
    Messages:
    3,942
    Likes Received:
    205
    tnx man
     
  15. 江雨燃双鱼

    江雨燃双鱼 Active Member

    Joined:
    Apr 5, 2014
    Messages:
    796
    Likes Received:
    70
  16. tmyd

    tmyd Member

    Joined:
    Mar 29, 2020
    Messages:
    83
    Likes Received:
    2
    thanks
     
  17. tmyd

    tmyd Member

    Joined:
    Mar 29, 2020
    Messages:
    83
    Likes Received:
    2
    thanks
     
  18. maxkeiser

    maxkeiser Well-Known Member Uploader

    Joined:
    Aug 24, 2016
    Messages:
    8,096
    Likes Received:
    23,005
    wahts taht
     
  19. uminomiyako

    uminomiyako Well-Known Member

    Joined:
    May 28, 2016
    Messages:
    3,759
    Likes Received:
    223
  20. Nzo

    Nzo Active Member

    Joined:
    Aug 16, 2016
    Messages:
    287
    Likes Received:
    27
  21. ManuelLopez5

    ManuelLopez5 Active Member

    Joined:
    Jun 7, 2014
    Messages:
    732
    Likes Received:
    45