Rihanna - Umbrella (Deluxe Music HD-1080i-DD2.0)-Olgold

Discussion in 'DELUXE MUSIC HD' started by Olgold, Aug 26, 2015.

  1. Olgold

    Olgold Well-Known Member Capper

    Joined:
    Aug 19, 2015
    Messages:
    386
    Likes Received:
    1,310
    [​IMG]
    General
    Format : MPEG-TS
    File size : 255 MiB
    Duration : 4mn 11s
    Overall bit rate mode : Variable
    Overall bit rate : 8 514 Kbps

    Video
    Format : AVC
    Format/Info : Advanced Video Codec
    Format profile : [email protected]
    Format settings, CABAC : Yes
    Format settings, ReFrames : 4 frames
    Duration : 4mn 9s
    Bit rate : 7 706 Kbps
    Width : 1 280 pixels
    Height : 1 080 pixels
    Display aspect ratio : 16:9
    Frame rate : 25.000 fps
    Standard : Component
    Color space : YUV
    Chroma subsampling : 4:2:0
    Bit depth : 8 bits
    Scan type : Interlaced
    Scan order : Top Field First
    Bits/(Pixel*Frame) : 0.223
    Stream size : 230 MiB (90%)
    Color range : Limited

    Audio
    Format : AC-3
    Format/Info : Audio Coding 3
    Mode extension : CM (complete main)
    Format settings, Endianness : Big
    Duration : 4mn 10s
    Bit rate mode : Constant
    Bit rate : 384 Kbps
    Channel(s) : 2 channels
    Channel positions : Front: L R
    Sampling rate : 48.0 KHz
    Compression mode : Lossy
    Delay relative to video : 155ms
    Stream size : 11.5 MiB (5%)
    Language : German
    Language, more info : Clean effects

    Hidden Content:
    You must reply before you can see the hidden data contained here.
     
    Last edited: Aug 26, 2015
    aura dione, enzogyn, rhea and 4 others like this.
  2. Loading...


  3. DETOX

    DETOX Well-Known Member V . I . P. Uploader

    Joined:
    Feb 20, 2014
    Messages:
    2,752
    Likes Received:
    13,912
    Thank you so much! :love:
     
  4. 777josem

    777josem Well-Known Member Uploader

    Joined:
    Sep 1, 2014
    Messages:
    2,424
    Likes Received:
    1,294
    Thank you so much!
     
  5. lucash

    lucash Member

    Joined:
    Nov 25, 2013
    Messages:
    202
    Likes Received:
    11
    thank you
     
  6. Ank-hell

    Ank-hell Well-Known Member V . I . P.

    Joined:
    Dec 21, 2013
    Messages:
    1,417
    Likes Received:
    5,180
    thank you
     
  7. Dreamer

    Dreamer ♫ It's Britney Bitch ♫ Capper Uploader

    Joined:
    Dec 4, 2014
    Messages:
    2,216
    Likes Received:
    1,932
    Thank you
     
  8. Grailen

    Grailen Well-Known Member

    Joined:
    Oct 8, 2013
    Messages:
    530
    Likes Received:
    468
    thank you
     
  9. 江雨燃双鱼

    江雨燃双鱼 Active Member

    Joined:
    Apr 5, 2014
    Messages:
    585
    Likes Received:
    34
  10. Crusha

    Crusha Well-Known Member Capper

    Joined:
    Oct 15, 2014
    Messages:
    2,350
    Likes Received:
    2,134
    thank you
     
  11. rhea

    rhea Well-Known Member

    Joined:
    Jan 6, 2014
    Messages:
    5,266
    Likes Received:
    253
    thank you so much!
     
  12. daamxlaws

    daamxlaws Member

    Joined:
    Oct 24, 2014
    Messages:
    42
    Likes Received:
    3
    thanks man.
     
  13. nolynexor88

    nolynexor88 Active Member

    Joined:
    Sep 29, 2015
    Messages:
    826
    Likes Received:
    26
     
  14. furkan

    furkan Member

    Joined:
    Oct 9, 2015
    Messages:
    194
    Likes Received:
    3
    thnks youuu
     
  15. Attention

    Attention Active Member

    Joined:
    Nov 30, 2013
    Messages:
    564
    Likes Received:
    29
  16. BinhTVT

    BinhTVT Member

    Joined:
    Jun 30, 2015
    Messages:
    176
    Likes Received:
    3
    thanks for sharing
     
  17. J_Pablo

    J_Pablo Active Member

    Joined:
    Nov 27, 2013
    Messages:
    430
    Likes Received:
    62
    Thanks for share
     
  18. Snorom6

    Snorom6 Well-Known Member Uploader

    Joined:
    Dec 17, 2015
    Messages:
    4,246
    Likes Received:
    3,538
  19. RUS22877773

    RUS22877773 Member

    Joined:
    Jan 7, 2016
    Messages:
    101
    Likes Received:
    0
    Thank you so much!
     
  20. Christian Antichrist

    Christian Antichrist Member

    Joined:
    Jan 3, 2016
    Messages:
    208
    Likes Received:
    2
  21. z0ntik

    z0ntik Member

    Joined:
    Feb 29, 2016
    Messages:
    105
    Likes Received:
    3
    thanks