Rihanna - S.O.S. | MCM Top-HDTV 1080i-DD2.0 | IboYLDz-HDMania

Discussion in 'MCM & MCM Top HD' started by By.YLDz, Nov 30, 2015.

  1. By.YLDz

    By.YLDz Hayley Williams Fan :) Capper

    Joined:
    Oct 7, 2013
    Messages:
    363
    Likes Received:
    4,121
    ReC. IboYLDz

    [​IMG]

    [​IMG]

    [​IMG]

    [​IMG]

    [​IMG]

    [​IMG]

    [​IMG]

    [​IMG]

    [​IMG]

    [​IMG]

    [​IMG]

    [​IMG]

    [​IMG]

    Format : MPEG-TS
    File size : 227 MiB
    Duration : 3mn 59s
    Overall bit rate mode : Variable
    Overall bit rate : 7 971 Kbps

    Video
    ID : 310 (0x136)
    Menu ID : 8603 (0x219B)
    Format : AVC
    Format/Info : Advanced Video Codec
    Format profile : [email protected]
    Format settings, CABAC : Yes
    Format settings, ReFrames : 4 frames
    Codec ID : 27
    Duration : 3mn 58s
    Bit rate : 7 384 Kbps
    Width : 1 440 pixels
    Height : 1 080 pixels
    Display aspect ratio : 16:9
    Frame rate : 25.000 fps
    Standard : Component
    Color space : YUV
    Chroma subsampling : 4:2:0
    Bit depth : 8 bits
    Scan type : MBAFF
    Bits/(Pixel*Frame) : 0.190
    Stream size : 210 MiB (93%)
    Color primaries : BT.709
    Transfer characteristics : BT.709
    Matrix coefficients : BT.709

    Audio
    ID : 321 (0x141)
    Menu ID : 8603 (0x219B)
    Format : AC-3
    Format/Info : Audio Coding 3
    Mode extension : CM (complete main)
    Format settings, Endianness : Big
    Codec ID : 6
    Duration : 3mn 59s
    Bit rate mode : Constant
    Bit rate : 192 Kbps
    Channel(s) : 2 channels
    Channel positions : Front: L R
    Sampling rate : 48.0 KHz
    Bit depth : 16 bits
    Compression mode : Lossy
    Delay relative to video : -120ms
    Stream size : 5.47 MiB (2%)
    Language : French
    Hidden Content:
    You must either reply or click 'Like' to see the hidden information contained here.


     
    Last edited: Nov 30, 2015
  2. Loading...


  3. Grailen

    Grailen Well-Known Member

    Joined:
    Oct 8, 2013
    Messages:
    606
    Likes Received:
    777
    thank you
     
  4. rhea

    rhea Well-Known Member

    Joined:
    Jan 6, 2014
    Messages:
    6,967
    Likes Received:
    758
    thank you so much :)
     
  5. Dreamer

    Dreamer Lana Del Rey ♥ Halsey Capper V . I . P. Uploader

    Joined:
    Dec 4, 2014
    Messages:
    2,883
    Likes Received:
    4,410
    Thank you
     
  6. nolynexor88

    nolynexor88 Well-Known Member

    Joined:
    Sep 29, 2015
    Messages:
    1,204
    Likes Received:
    76
    Thank you.:)
     
  7. GHN

    GHN Member

    Joined:
    Oct 27, 2014
    Messages:
    500
    Likes Received:
    12
    Thank you
     
  8. 777josem

    777josem ProRes 1080p LPCM V . I . P. Uploader

    Joined:
    Sep 1, 2014
    Messages:
    3,711
    Likes Received:
    2,939
    :DThank you so much!
     
  9. Crusha

    Crusha Well-Known Member Capper V . I . P.

    Joined:
    Oct 15, 2014
    Messages:
    2,358
    Likes Received:
    2,652
    thank you
     
  10. fob

    fob Member

    Joined:
    Dec 21, 2013
    Messages:
    120
    Likes Received:
    2
    thanks
     
  11. MajorVi

    MajorVi Member

    Joined:
    Feb 12, 2016
    Messages:
    452
    Likes Received:
    11
    thank you
     
  12. PETTERTRAN119

    PETTERTRAN119 Member

    Joined:
    Sep 26, 2014
    Messages:
    123
    Likes Received:
    1
    thnaksssss
     
  13. Zatimi

    Zatimi Active Member

    Joined:
    Aug 27, 2014
    Messages:
    744
    Likes Received:
    143
    thank you
     
  14. enzogyn

    enzogyn Member

    Joined:
    Dec 2, 2015
    Messages:
    280
    Likes Received:
    38
    tn
    x so much
     
  15. jimijims

    jimijims Member

    Joined:
    Jul 13, 2016
    Messages:
    274
    Likes Received:
    12
    thanks
     
  16. Spartan

    Spartan Member

    Joined:
    Dec 8, 2015
    Messages:
    42
    Likes Received:
    4
    thanks
    ReC. IboYLDz

    [​IMG]

    [​IMG]

    [​IMG]

    [​IMG]

    [​IMG]

    [​IMG]

    [​IMG]

    [​IMG]

    [​IMG]

    [​IMG]

    [​IMG]

    [​IMG]

    [​IMG]

    Format : MPEG-TS
    File size : 227 MiB
    Duration : 3mn 59s
    Overall bit rate mode : Variable
    Overall bit rate : 7 971 Kbps

    Video
    ID : 310 (0x136)
    Menu ID : 8603 (0x219B)
    Format : AVC
    Format/Info : Advanced Video Codec
    Format profile : [email protected]
    Format settings, CABAC : Yes
    Format settings, ReFrames : 4 frames
    Codec ID : 27
    Duration : 3mn 58s
    Bit rate : 7 384 Kbps
    Width : 1 440 pixels
    Height : 1 080 pixels
    Display aspect ratio : 16:9
    Frame rate : 25.000 fps
    Standard : Component
    Color space : YUV
    Chroma subsampling : 4:2:0
    Bit depth : 8 bits
    Scan type : MBAFF
    Bits/(Pixel*Frame) : 0.190
    Stream size : 210 MiB (93%)
    Color primaries : BT.709
    Transfer characteristics : BT.709
    Matrix coefficients : BT.709

    Audio
    ID : 321 (0x141)
    Menu ID : 8603 (0x219B)
    Format : AC-3
    Format/Info : Audio Coding 3
    Mode extension : CM (complete main)
    Format settings, Endianness : Big
    Codec ID : 6
    Duration : 3mn 59s
    Bit rate mode : Constant
    Bit rate : 192 Kbps
    Channel(s) : 2 channels
    Channel positions : Front: L R
    Sampling rate : 48.0 KHz
    Bit depth : 16 bits
    Compression mode : Lossy
    Delay relative to video : -120ms
    Stream size : 5.47 MiB (2%)
    Language : French
    ***Hidden content cannot be quoted.***


    [/QUOTE]
     
  17. Jetz-v4

    Jetz-v4 Member

    Joined:
    Apr 17, 2017
    Messages:
    45
    Likes Received:
    2
    Thank You
     
  18. Jetz-v4

    Jetz-v4 Member

    Joined:
    Apr 17, 2017
    Messages:
    45
    Likes Received:
    2
    Thank You
     
  19. Tommyboy

    Tommyboy Active Member

    Joined:
    Oct 23, 2016
    Messages:
    733
    Likes Received:
    28