HDTV Rihanna - Only Girl (Live @ Le Grand Journal 10.11.2010) 1080p

Discussion in 'HD Live Performances' started by hanshermann, Jan 11, 2018.

  1. hanshermann

    hanshermann Well-Known Member Uploader

    Joined:
    Aug 24, 2016
    Messages:
    6,464
    Likes Received:
    9,976
    [​IMG]

    Rihanna - Only Girl (Live @ Le Grand Journal 10.11.2010) 1080p

    Code:
    General
    Complete name               : Rihanna - Only Girl (Live @ Le Grand Journal 10.11.2010) 1080p.mpg
    Format                      : MPEG-PS
    File size                   : 395 MiB
    Duration                    : 3 min 35 s
    Overall bit rate mode       : Variable
    Overall bit rate            : 15.4 Mb/s
    
    Video
    ID                          : 224 (0xE0)
    Format                      : MPEG Video
    Format version              : Version 2
    Format profile              : Main@High
    Format settings, BVOP       : No
    Format settings, Matrix     : Default
    Format settings, GOP        : N=12
    Duration                    : 3 min 35 s
    Bit rate mode               : Variable
    Bit rate                    : 14.9 Mb/s
    Width                       : 1 920 pixels
    Height                      : 1 080 pixels
    Display aspect ratio        : 16:9
    Frame rate                  : 25.000 FPS
    Color space                 : YUV
    Chroma subsampling          : 4:2:0
    Bit depth                   : 8 bits
    Scan type                   : Progressive
    Compression mode            : Lossy
    Bits/(Pixel*Frame)          : 0.287
    Time code of first frame    : 00:00:00:00
    Time code source            : Group of pictures header
    GOP, Open/Closed            : Open
    Stream size                 : 382 MiB (97%)
    
    Audio
    ID                          : 189 (0xBD)-128 (0x80)
    Format                      : AC-3
    Format/Info                 : Audio Coding 3
    Format settings, Endianness : Big
    Muxing mode                 : DVD-Video
    Duration                    : 3 min 35 s
    Bit rate mode               : Constant
    Bit rate                    : 192 kb/s
    Channel(s)                  : 2 channels
    Channel positions           : Front: L R
    Sampling rate               : 48.0 kHz
    Frame rate                  : 31.250 FPS (1536 spf)
    Bit depth                   : 16 bits
    Compression mode            : Lossy
    Stream size                 : 4.94 MiB (1%)
    Service kind                : Complete Main
    
    Hidden Content:
    You must either reply or click 'Like' to see the hidden information contained here.
     
    Last edited: Apr 13, 2018
  2. Loading...


  3. zuluka

    zuluka Well-Known Member

    Joined:
    Jul 9, 2016
    Messages:
    1,019
    Likes Received:
    31
    thanks
     
  4. HERO

    HERO Member

    Joined:
    Feb 8, 2016
    Messages:
    192
    Likes Received:
    19
    thank you!
     
  5. ruslanonline

    ruslanonline britneyspearsmedia.ru

    Joined:
    May 6, 2017
    Messages:
    350
    Likes Received:
    408
    Thank you!
     
  6. Danny82

    Danny82 Well-Known Member

    Joined:
    May 28, 2016
    Messages:
    2,358
    Likes Received:
    654
    Thank you so much!!!
     
  7. miguelmr87

    miguelmr87 Well-Known Member

    Joined:
    Dec 20, 2013
    Messages:
    1,216
    Likes Received:
    281
    it is a upscale?
     
  8. BetaKsi

    BetaKsi Well-Known Member

    Joined:
    Oct 18, 2015
    Messages:
    1,931
    Likes Received:
    537
    Thank you))
     
  9. mcslimshady

    mcslimshady Well-Known Member

    Joined:
    Jun 20, 2016
    Messages:
    1,825
    Likes Received:
    46
  10. jvctr

    jvctr Member

    Joined:
    Nov 22, 2016
    Messages:
    89
    Likes Received:
    8
    thank you
     
  11. ray120571

    ray120571 New Member

    Joined:
    Nov 17, 2016
    Messages:
    21
    Likes Received:
    1
    thans a lot
     
  12. silentnight247

    silentnight247 Member

    Joined:
    Jun 2, 2016
    Messages:
    162
    Likes Received:
    5
  13. frisby

    frisby Well-Known Member

    Joined:
    Nov 21, 2015
    Messages:
    1,476
    Likes Received:
    132
    thanks
     
  14. Fabien Fournier

    Fabien Fournier Active Member

    Joined:
    Nov 14, 2013
    Messages:
    646
    Likes Received:
    70
    Thanks
     
  15. multimediafm

    multimediafm Well-Known Member Donor

    Joined:
    Mar 27, 2014
    Messages:
    12,883
    Likes Received:
    1,013
  16. kweenbey

    kweenbey Active Member

    Joined:
    Sep 20, 2016
    Messages:
    360
    Likes Received:
    243
  17. anunnaki

    anunnaki Member

    Joined:
    Nov 19, 2016
    Messages:
    341
    Likes Received:
    9
  18. apl3

    apl3 Well-Known Member

    Joined:
    Jun 11, 2017
    Messages:
    1,042
    Likes Received:
    29
    thanks
     
  19. Fernando

    Fernando Member

    Joined:
    Jul 22, 2014
    Messages:
    838
    Likes Received:
    18
  20. toonbbv

    toonbbv Well-Known Member

    Joined:
    Dec 11, 2013
    Messages:
    2,188
    Likes Received:
    103
    thank you
     
  21. Tommyboy

    Tommyboy Active Member

    Joined:
    Oct 23, 2016
    Messages:
    907
    Likes Received:
    35
    T.Hanks