Rihanna - Only Girl [In The World] (MTVIDOL-1080i-DD2.0-Djodjara)-HDMania

Discussion in 'MTV IDOL' started by Djodjara, May 28, 2015.

  1. RogerCieslar

    RogerCieslar Active Member

    Joined:
    Jan 3, 2018
    Messages:
    641
    Likes Received:
    67
  2. alemancha

    alemancha Active Member

    Joined:
    Apr 5, 2017
    Messages:
    615
    Likes Received:
    35
    thankss
     
  3. Joao0404

    Joao0404 Member

    Joined:
    Jul 24, 2018
    Messages:
    239
    Likes Received:
    8
    valeu

    [​IMG]
    [​IMG]

    Geral:
    Identificação: 1 (0 x 1)
    Formato: MPEG-TS
    Tamanho do arquivo: 118 MiB
    Duração: 4mn 6s
    Modo de taxa de bits global: Variável
    Taxa de bits global: 4 006 Kbps

    Vídeo:
    ID: 310 (0x136)
    ID do Menu: 1 (0x1)
    Formato: AVC
    Formato / Info: Codec de Vídeo Avançado
    Perfil do arquivo: Alto@L4.0
    Configurações de formato, CABAC: Sim
    Configurações de efeitos, Reformas: 4 quadros
    Codec ID: 27
    Duração: 4mn 6s
    Taxa de bits: 3 614 Kbps
    Largura: 1 920 pixels
    Altura: 1 080 pixels
    Proporção da tela: 16: 9
    Taxa de quadros: 25.000 fps
    Padrão: componente
    Espaço de cor: YUV
    Subamostragem de croma: 4: 2: 0
    Profundidade de bits: 8 bits
    Scan type : MBAFF
    Scan order : Top Field First
    Bits/(Pixel*Frame) : 0.070
    Stream size : 106 MiB (90%)
    Color primaries : BT.709
    Transfer characteristics : BT.709
    Matrix coefficients : BT.709
    Color range : Limited

    Audio:
    ID : 321 (0x141)
    Menu ID : 1 (0x1)
    Format : AC-3
    Format/Info : Audio Coding 3
    Mode extension : CM (complete main)
    Format settings, Endianness : Big
    Codec ID : 6
    Duration : 4mn 6s
    Bit rate mode : Constant
    Bit rate : 192 Kbps
    Channel(s) : 2 channels
    Channel positions : Front: L R
    Sampling rate : 48.0 KHz
    Bit depth : 16 bits
    Compression mode : Lossy
    Stream size : 5.65 MiB (5%)
    Language : French

    ***Hidden content cannot be quoted.***
    [/QUOTE]
     
  4. lukierrywhere

    lukierrywhere Member

    Joined:
    May 1, 2015
    Messages:
    219
    Likes Received:
    10
    thank you
     
  5. fachoandre

    fachoandre Member

    Joined:
    Apr 28, 2019
    Messages:
    179
    Likes Received:
    11
    Thanks!!!
     
  6. enkly

    enkly Member

    Joined:
    Nov 20, 2016
    Messages:
    428
    Likes Received:
    9
    thanks
     
  7. frtghy007

    frtghy007 Member

    Joined:
    Dec 8, 2015
    Messages:
    150
    Likes Received:
    11
  8. Erickanthony21

    Erickanthony21 Member

    Joined:
    May 27, 2020
    Messages:
    115
    Likes Received:
    1
  9. JPGAmbrosino

    JPGAmbrosino Well-Known Member

    Joined:
    Jul 30, 2016
    Messages:
    3,786
    Likes Received:
    153
  10. ST_1911

    ST_1911 Member

    Joined:
    May 1, 2017
    Messages:
    600
    Likes Received:
    5
    thanks